Ссылка на приватное зеркало нашего сайта всего за 1$. Внимание количество ограничено!!!

2 сезон

iTunes

iTunes

1

iTunes

iTunes

iTunes

WEBRip

iTunes

30
pack

Вам бонус

ВАЖНО

!!Акция!!

Alien_RageХит недели

RePack

Horizon Zero Dawn

ИГРА 18+

pack

RePack

jed

!!Акция!!

Alien_Rage

RePack

fifa19

RePack

Assassins Creed: Odyssey

RePack

NEED FOR SPEED™ PAYBACK

4 сезон

9 сезон

Бесстыжие 9 сезон

Все сериалы

все сериалы на PB.wtf

RePack

FAR CRY 5
  

Увидимся вчера / See You Yesterday (Стефон Бристоль) [2019, Фантастика, боевик, триллер, драма, криминал, приключения, WEB-DL 720p] MVO ["Синема УС"] pb.wtf

Увидимся вчера через торрент pb.wtf

Размер: 3.41 GB | Добавлен: 1 год 4 мес. назад | Торрент скачан:61 раз
Скачать  

18-05-2019 13:09 Увидимся вчера Скачать торрент  

Увидимся вчера / See You Yesterday Год выпуска: 2019
Страна: США
Жанр: Фантастика, боевик, триллер, драма, криминал, приключения
Продолжительность: 01:28:00
Перевод: Любительский (многоголосый) | "Синема УС"
Субтитры: отсутствуют

Режиссер: Стефон Бристоль

rating

В ролях:

Иден Дункан-Смит, Данте Кричлоу, Астро, Марша Стефани Блейк, Мира Лукреция Тейлор, Уэви Джонез, Дамарис Льюис, Фрэнк Хартс, Талия Уайтакер, Бретт Дж. Смит

Описание:

Можно ли перехитрить судьбу? Лучшие друзья, школьники CJ и Себастьян, всё своё свободное время посвящают созданию удивительных рюкзаков, с помощью которых можно путешествовать во времени. Когда полицейский на улице убивает старшего брата CJ, они решают использовать изобретение, отправиться в прошлое, и попытаться спасти его.

Качество: WEB-DL 720p
Формат: MKV

Видео: h.264,5 160 Кбит/с, 1280x694
Аудио: Русский, (AC3, 2 ch, 384 Кбит/с)
скриншот  скриншот  скриншот  

Общее
Уникальный идентификатор : 246699477986314028453182565227210602205 (0xB9989758596F6785A26DE8DB33ADF6DD)
Полное имя : D:\See.you.yesterday.2O19.P.WEB_DL.72Op.mkv
Формат : Matroska
Версия формата : Version 2
Размер файла : 3,41 Гбайт
Продолжительность : 1 ч. 28 м.
Режим общего битрейта : Переменный
Общий поток : 5546 Кбит/сек
Дата кодирования : UTC 2019-05-18 04:49:03
Программа кодирования : mkvmerge v8.3.0 ('Over the Horizon') 64bit
Библиотека кодирования : libebml v1.3.1 + libmatroska v1.4.2

Видео
Идентификатор : 1
Формат : AVC
Формат/Информация : Advanced Video Codec
Профиль формата : High@L4.1
Параметр CABAC формата : Да
Параметр RefFrames формата : 4 кадра
Идентификатор кодека : V_MPEG4/ISO/AVC
Продолжительность : 1 ч. 28 м.
Вид битрейта : Переменный
Битрейт : 5160 Кбит/сек
Максимальный битрейт : 6000 Кбит/сек
Ширина : 1280 пикселей
Высота : 694 пикселя
Соотношение сторон : 1,85:1
Режим частоты кадров : Постоянный
Частота кадров : 23,976 (24000/1001) кадра/сек
Стандарт вещания : Component
Цветовое пространство : YUV
Субдискретизация насыщенности : 4:2:0
Битовая глубина : 8 бит
Тип развёртки : Прогрессивная
Бит/(Пиксели*Кадры) : 0.237
Размер потока : 3,11 Гбайт (91%)
Default : Да
Forced : Нет
Цветовой диапазон : Limited
Основные цвета : BT.709
Характеристики трансфера : BT.709
Коэффициенты матрицы : BT.709

Аудио
Идентификатор : 2
Формат : AC-3
Формат/Информация : Audio Coding 3
Расширение режима : CM (complete main)
Параметр Endianness формата : Big
Идентификатор кодека : A_AC3
Продолжительность : 1 ч. 28 м.
Вид битрейта : Постоянный
Битрейт : 384 Кбит/сек
Каналы : 2 канала
Расположение каналов : Front: L R
Частота : 48,0 КГц
Частота кадров : 31,250 кадров/сек (1536 spf)
Метод сжатия : С потерями
Размер потока : 242 Мбайт (7%)
Default : Да
Forced : Нет

pb.wtf



Скачать Увидимся вчера через торрент https://b.radikal.ru/b21/1905/ec/c5095f903d54.jpg Скачать фильм Увидимся вчера через торрент бесплантно в хорошем качестве Описание: Можно ли перехитрить судьбу? Лучшие друзья, школьники CJ и Себастьян, всё своё свободное время посвящают созданию удивительных ... 10 10 2
Торрент: Зарегистрирован [2019-05-18 13:09] · скачан: 61 раз
Статус: T временная
Размер: 3.41 GB
Как cкачать? Как скачать Увидимся вчера через торрент | qTorrent

% Раздел Тема Автор DL S | L
T Фильмы (мультфильмы) cо спонсором показа (Новинки AVI/MKV) [ 1.37 GB ] Увидимся вчера / See You Yesterday [2019 WEB-DLRip] MVO ["Синема УС"] bober100 Скачать
2 | 0

28-11-2019 20:33  

Отключить всю рекламу на сайте

    Дорогой пользователь! Огромная просьба, поблагодарите релизера, оцените раздачу и оставьте свои комментарий, если Вы скачали Увидимся вчера через торрент бесплатно! Внесите свою лепту в развитие PiratBit!
    Комментировать посты могут только пользователи прошедшие не сложную регистрацию
    Показать сообщения:    

    Увидимся вчера через торрент
    Скачать бесплатно Увидимся вчера
    Увидимся вчера скачать торрент
    Увидимся вчера смотреть онлайн
    Cкачать фильм Увидимся вчера бесплатно
    Увидимся вчера скачать торрент в хорошем качестве
    Увидимся вчера смотреть онлайн бесплатно в хорошем качестве


    Вы не можете начинать темы
    Вы не можете отвечать на сообщения
    Вы не можете редактировать свои сообщения
    Вы не можете удалять свои сообщения
    Вы не можете голосовать в опросах
    Вы не можете прикреплять файлы к сообщениям
    Вы можете скачивать файлы