Ссылка на приватное зеркало всего за 1$. Внимание количество ограничено!!!

OK

1+1

iTunes

мы

OK

1

WEB-DLRip

Джокер

Пифагор

Ведьмак / The Witcher сериал

iTunes

ПШазам

ОК

Оно 2

iTunes

30
pack

Вам бонус

ВАЖНО

!!Акция!!

Alien_RageХит недели

RePack

Resident Evil 21

ИГРА 18+

pack

RePack

jed

RePack

fifa19

RePack

Assassins Creed: Odyssey

RePack

NEED FOR SPEED™ PAYBACK

4 сезон

9 сезон

Бесстыжие 9 сезон

Все сериалы

все сериалы на PB.wtf

RePack

FAR CRY 5
  

Район / The Neighborhood (Фрэнк Д'Анджело) [2017, драма, WEB-DL 720p] MVO ["Синема УС"] pb.wtf

Район через торрент pb.wtf

Раздают: 1 [ 0 KB/s ]
Размер: 4.41 GB | Добавлен: 8 мес. назад | Торрент скачан:35 раз
Скачать  

18-05-2019 14:16 Район Скачать торрент  

Район / The NeighborhoodГод выпуска: 2017
Страна: Канада
Жанр: драма
Продолжительность: 01:50:35
Перевод: Любительский (многоголосый) | "Синема УС"
Субтитры: отсутствуют

Режиссер: Фрэнк Д'Анджело

rating

В ролях:

Дэнни Айелло, Франческо Антонио, Джон Эштон, Арманд Ассанте, Кейша Августин, Шерман Огастас, Дэниэл Болдуин, Робин Болдуин, Бьянка Быховская, Джэдон Клюс

Описание:

Нахальная группа бандитов терроризировала свой район еще с юношеских лет - до тех пор, пока не перешла дорогу не тем людям. Теперь их ждет заварушка с главарем мафии, поэтому их жизнь превратится в сущий ад на земле...

Качество: WEB-DL 720p
Формат: MKV

Видео: h.264,5 318 Кбит/с, 1280x538
Аудио: Русский, (AC3, 2 ch, 384 Кбит/с)
скриншот  скриншот  скриншот  

Общее
Уникальный идентификатор : 254618527416880215574064935296505397686 (0xBF8DBEA062CCD91987557B5E5C2EC1B6)
Полное имя : D:\the.neighborhood.2017.P.WEB_DL.72Op.mkv
Формат : Matroska
Версия формата : Version 2
Размер файла : 4,41 Гбайт
Продолжительность : 1 ч. 50 м.
Режим общего битрейта : Переменный
Общий поток : 5704 Кбит/сек
Дата кодирования : UTC 2019-05-18 04:42:55
Программа кодирования : mkvmerge v8.3.0 ('Over the Horizon') 64bit
Библиотека кодирования : libebml v1.3.1 + libmatroska v1.4.2

Видео
Идентификатор : 1
Формат : AVC
Формат/Информация : Advanced Video Codec
Профиль формата : High@L4.1
Параметр CABAC формата : Да
Параметр RefFrames формата : 4 кадра
Идентификатор кодека : V_MPEG4/ISO/AVC
Продолжительность : 1 ч. 50 м.
Вид битрейта : Переменный
Битрейт : 5318 Кбит/сек
Максимальный битрейт : 6000 Кбит/сек
Ширина : 1280 пикселей
Высота : 538 пикселей
Соотношение сторон : 2,40:1
Режим частоты кадров : Постоянный
Частота кадров : 23,976 (24000/1001) кадра/сек
Стандарт вещания : Component
Цветовое пространство : YUV
Субдискретизация насыщенности : 4:2:0
Битовая глубина : 8 бит
Тип развёртки : Прогрессивная
Бит/(Пиксели*Кадры) : 0.315
Размер потока : 4,02 Гбайт (91%)
Default : Да
Forced : Нет
Цветовой диапазон : Limited
Основные цвета : BT.709
Характеристики трансфера : BT.709
Коэффициенты матрицы : BT.709

Аудио
Идентификатор : 2
Формат : AC-3
Формат/Информация : Audio Coding 3
Расширение режима : CM (complete main)
Параметр Endianness формата : Big
Идентификатор кодека : A_AC3
Продолжительность : 1 ч. 50 м.
Вид битрейта : Постоянный
Битрейт : 384 Кбит/сек
Каналы : 2 канала
Расположение каналов : Front: L R
Частота : 48,0 КГц
Частота кадров : 31,250 кадров/сек (1536 spf)
Метод сжатия : С потерями
Размер потока : 304 Мбайт (7%)
Default : Да
Forced : Нет

pb.wtf



Скачать Район через торрент https://a.radikal.ru/a23/1905/00/932601be6766.jpg Скачать фильм Район через торрент бесплантно в хорошем качестве Описание: Нахальная группа бандитов терроризировала свой район еще с юношеских лет - до тех пор, пока не перешла дорогу не тем людям. ... 10 10 3
Торрент: Зарегистрирован [2019-05-18 14:16] · скачан: 35 раз
Статус: T временная
Размер: 4.41 GB
Как cкачать? Как скачать Район через торрент | qTorrent

% Раздел Тема Автор DL S | L
T Фильмы (мультфильмы) cо спонсором показа (Новинки AVI/MKV) [ 1.37 GB ] Район / The Neighborhood [2017 WEB-DLRip] MVO ["Синема УС"] bober100 Скачать
1 | 0
Гонзо [ 840 MB ] Пентхаус В Бедном Районе / Penthouse The Neighborhood Tramp [2014 All sex Feature AnalHardcore Beauties Oral DVDRip Оригинал] 19alexei87 Скачать
1 | 0

28-11-2019 20:33  

Отключить всю рекламу на сайте

    Дорогой пользователь! Огромная просьба, поблагодарите релизера, оцените раздачу и оставьте свои комментарий, если Вы скачали Район через торрент бесплатно! Внесите свою лепту в развитие PiratBit!
    Комментировать посты могут только пользователи прошедшие не сложную регистрацию
    Показать сообщения:    

    Район через торрент
    Скачать бесплатно Район
    Район скачать торрент
    Район смотреть онлайн
    Cкачать фильм Район бесплатно
    Район скачать торрент в хорошем качестве
    Район смотреть онлайн бесплатно в хорошем качестве


    Вы не можете начинать темы
    Вы не можете отвечать на сообщения
    Вы не можете редактировать свои сообщения
    Вы не можете удалять свои сообщения
    Вы не можете голосовать в опросах
    Вы не можете прикреплять файлы к сообщениям
    Вы можете скачивать файлы