Ссылка на приватное зеркало всего за 1$. Внимание количество ограничено!!!

iTunes

iTunes

iTunes

1

iTunes

iTunes

iTunes

WEBRip

iTunes

30
pack

$ от Little Big

ВАЖНО

!!Акция!!

Alien_RageХит недели

RePack

Resident Evil 21

ИГРА 18+

pack

RePack

jed

!!Акция!!

Alien_Rage

RePack

fifa19

RePack

Assassins Creed: Odyssey

RePack

NEED FOR SPEED™ PAYBACK

4 сезон

9 сезон

Бесстыжие 9 сезон

Все сериалы

все сериалы на PB.wtf

RePack

FAR CRY 5
  

Валентина / Valentine (Абай Фокс, Агус Пестол) [2017, боевик, WEB-DL 1080p] MVO ["Синема УС"] pb.wtf

Валентина через торрент pb.wtf

Размер: 4.51 GB | Добавлен: 1 год 2 мес. назад | Торрент скачан:22 раза
Скачать  

18-05-2019 17:20 Валентина Скачать торрент  

Валентина / ValentineГод выпуска: 2017
Страна: Индонезия
Жанр: боевик
Продолжительность: 01:39:26
Перевод: Любительский (многоголосый) | "Синема УС"
Субтитры: отсутствуют

Режиссер: Абай Фокс, Агус Пестол

rating

В ролях:

Ахмад Аффанди, Индра Бирово, Мега Карефанса, Альберт Сен, Арье Дагиенкз, Марселл Домитс, Луис Йоком, Эстель Линден, Удех Путралага, Леруа Османи

Описание:

Юная красавица Шримая живёт в шумном городе Батавия, котоорый славится высоким уровнем преступности. Девушка работает официанткой в кафе, но мечтает о стать известной актрисой и на досуге оттачивает свои навыки в силате. Однажды судьба посылает ей счастливое знакомство с двумя влиятельными киношниками. Один из них — режиссёр, задумавший поставить супергеройский фильм о девушке в маске, которая борется с преступностью. Но, чтобы убедить продюсеров проспонсировать фильм, нужно показать её в действии. Для этого троица начинает колесить по ночным улицам мегаполиса в поисках бандитов, снимать как Шри в обличье Валентины нейтрализует матёрых уголовников, и выкладывать это в интернет.

Качество: WEB-DL 1080p
Формат: MKV

Видео: h.264,6 103 Кбит/с, 1920x816
Аудио#1: Русский, (AC3, 2 ch, 384 Кбит/с)
скриншот  скриншот  скриншот  

Общее
Уникальный идентификатор : 231670701796860677880869646052856713765 (0xAE4A277885C50656975DA206DDB85225)
Полное имя : D:\Valentine.2O17.P.WEB-DL.1O8Op.mkv
Формат : Matroska
Версия формата : Version 2
Размер файла : 4,51 Гбайт
Продолжительность : 1 ч. 39 м.
Режим общего битрейта : Переменный
Общий поток : 6489 Кбит/сек
Дата кодирования : UTC 2019-05-18 01:25:30
Программа кодирования : mkvmerge v8.3.0 ('Over the Horizon') 64bit
Библиотека кодирования : libebml v1.3.1 + libmatroska v1.4.2

Видео
Идентификатор : 1
Формат : AVC
Формат/Информация : Advanced Video Codec
Профиль формата : High@L4.1
Параметр CABAC формата : Да
Параметр RefFrames формата : 4 кадра
Идентификатор кодека : V_MPEG4/ISO/AVC
Продолжительность : 1 ч. 39 м.
Вид битрейта : Переменный
Битрейт : 6103 Кбит/сек
Максимальный битрейт : 6900 Кбит/сек
Ширина : 1920 пикселей
Высота : 816 пикселей
Соотношение сторон : 2,35:1
Режим частоты кадров : Постоянный
Частота кадров : 23,976 (24000/1001) кадра/сек
Стандарт вещания : Component
Цветовое пространство : YUV
Субдискретизация насыщенности : 4:2:0
Битовая глубина : 8 бит
Тип развёртки : Прогрессивная
Бит/(Пиксели*Кадры) : 0.159
Размер потока : 4,15 Гбайт (92%)
Default : Да
Forced : Нет
Цветовой диапазон : Limited
Основные цвета : BT.709
Характеристики трансфера : BT.709
Коэффициенты матрицы : BT.709

Аудио
Идентификатор : 2
Формат : AC-3
Формат/Информация : Audio Coding 3
Расширение режима : CM (complete main)
Параметр Endianness формата : Big
Идентификатор кодека : A_AC3
Продолжительность : 1 ч. 39 м.
Вид битрейта : Постоянный
Битрейт : 384 Кбит/сек
Каналы : 2 канала
Расположение каналов : Front: L R
Частота : 48,0 КГц
Частота кадров : 31,250 кадров/сек (1536 spf)
Метод сжатия : С потерями
Размер потока : 273 Мбайт (6%)
Default : Да
Forced : Нет

pb.wtf



Скачать Валентина через торрент https://c.radikal.ru/c14/1905/c2/38c85c82ca4d.jpg Скачать фильм Валентина через торрент бесплантно в хорошем качестве Описание: Юная красавица Шримая живёт в шумном городе Батавия, котоорый славится высоким уровнем преступности. Девушка работает официанткой ... 10 10 3
Торрент: Зарегистрирован [2019-05-18 17:20] · скачан: 22 раз
Статус: T временная
Размер: 4.51 GB
Как cкачать? Как скачать Валентина через торрент | qTorrent

% Раздел Тема Автор DL S | L
Фильмы (WEB-DL 720p, 1080p) [ 2.62 GB ] Вечный день Святого Валентина / Valentine's Again [2017 Мело WEB-DL 720p] MVO bober100 Скачать
2 | 0
Фильмы 2017 [DVDrip, WEB-DLRip, HDrip] (DUB, MVO) [ 1.08 GB ] Вечный день Святого Валентина / Valentine's Again [2017 Мело WEB-DLRip] MVO bober100 Скачать
1 | 0
Порно фильмы с сюжетом [ 1.5 GB ] Моя Грешная Валентина / My Sinful Valentine [2020 All Sex Big Boobs Couples Feature WEB-DL] bashai5 Скачать
1 | 0
T Фильмы (мультфильмы) cо спонсором показа (Новинки AVI/MKV) [ 3.98 GB ] Валентина / Valentine [2017 WEB-DL 720p] MVO ["Синема УС"] bober100 Скачать
1 | 0
T Фильмы (мультфильмы) cо спонсором показа (Новинки AVI/MKV) [ 1.37 GB ] Валентина / Valentine [2017 WEB-DLRip] MVO ["Синема УС"] bober100 Скачать
1 | 0
T Фильмы (мультфильмы) cо спонсором показа (Новинки AVI/MKV) [ 3.03 GB ] День Зомбанутого Валентина / Valentine DayZ [2018 WEB-DL 720p] MVO ["Синема УС"] bober100 Скачать
1 | 0
T Фильмы (мультфильмы) cо спонсором показа (Новинки AVI/MKV) [ 1.37 GB ] День Зомбанутого Валентина / Valentine DayZ [2018 WEB-DLRip Любительский ] [Синема УС] Скорпион1976 Скачать
1 | 0

28-11-2019 20:33  

Отключить всю рекламу на сайте

    Дорогой пользователь! Огромная просьба, поблагодарите релизера, оцените раздачу и оставьте свои комментарий, если Вы скачали Валентина через торрент бесплатно! Внесите свою лепту в развитие PiratBit!
    Комментировать посты могут только пользователи прошедшие не сложную регистрацию
    Показать сообщения:    

    Валентина через торрент
    Скачать бесплатно Валентина
    Валентина скачать торрент
    Валентина смотреть онлайн
    Cкачать фильм Валентина бесплатно
    Валентина скачать торрент в хорошем качестве
    Валентина смотреть онлайн бесплатно в хорошем качестве


    Вы не можете начинать темы
    Вы не можете отвечать на сообщения
    Вы не можете редактировать свои сообщения
    Вы не можете удалять свои сообщения
    Вы не можете голосовать в опросах
    Вы не можете прикреплять файлы к сообщениям
    Вы можете скачивать файлы