Мега распродажа FORZA HORIZON 4 ULTIMATE+ВСЕ DLC+ОНЛАЙН всего за 499р. 349 руб. (супер цена). Внимание количество ограничено!!!

Лицензия

30

iTunes

мы

iTunes

1

1 сезон

Чернобыль

1 сезон

Ральф против интернета

MVO

Покемон. Детектив Пикачу

8 сезон

Игра престолов

iTunes

1+1

ИГРА 18+

pack

ВАЖНО

!!Акция!!

Alien_RageХит недели

RePack

Resident Evil 21
pack

RePack

Metro:Exodus

!!Акция!!

Alien_Rage

RePack

fifa19

RePack

Assassins Creed: Odyssey

RePack

NEED FOR SPEED™ PAYBACK

3 сезон

9 сезон

Бесстыжие 9 сезон

Все сериалы

все сериалы на PB.wtf

RePack

FAR CRY 5
Ребята, катастрофически не хватает 2730р. для оплаты серверов за МАЙ (всвязи с блокировками трафик упал в 3 раза), 1-2р., выручайте.
  

Победители / Сезон: 1 / Серии: 1-10 из 10 (Ангелина Никонова, Александр Баранов) [2019, Детектив, драма, исторический, WEB-DL 720p] pb.wtf

Победители через торрент pb.wtf

Размер: 14.12 GB | Добавлен: 1 мес. 7 д. назад | Торрент скачан:17 раз
Скачать  

18-05-2019 19:56 Победители Скачать торрент  

Победители Год выпуска: 2019
Страна: Россия
Жанр: Детектив, драма, исторический
Продолжительность: ~ 00:48:00
Субтитры: отсутствуют

Режиссер: Ангелина Никонова, Александр Баранов



В ролях:

Никита Панфилов, Никита Ефремов, Евгений Антропов, Юлия Пересильд, Анна Чиповская, Фёдор Лавров, Павел Ващилин, Александр Сетейкин, Алексей Павлов (IV), Валентин Самохин, Тимур Бадалбейли, Татьяна Тимакова, Эрика Булатая, Изабель Эйдлен, Анастасия Попова (II)

Описание:

1895 год. На всю Россию гремит имя знаменитого столичного адвоката Николая Андронова, не проигравшего пока ни одного судебного процесса. Его друзья Виктор Роскевич и Михаил Заварзин – тоже блестящие адвокаты. Они побеждают в сложнейших уголовных делах, порой не только оправдывая своих подзащитных, но и изобличая истинных преступников прямо в зале суда. В тяжёлых ситуациях друзья-адвокаты всегда приходят на помощь друг другу. Они ещё достаточно молоды (старшему, Николаю Андронову, всего 35 лет). Все трое абсолютно разные, но каждый готов пожертвовать ради друзей очень многим… Их многолетняя дружба, и осознание того, что есть на кого рассчитывать в трудной ситуации – не в последнюю очередь, делает всех троих ПОБЕДИТЕЛЯМИ. И в профессиональной, и в личной жизни.

Качество: WEB-DL 720p
Формат: MKV

Видео: MPEG4 AVC Video, H264, 16:9, 1280x720, 25 fps, ~4000 kbps, 0.174 bit/pixel
Аудио: AC3 Dolby Digital, 48.0 kHz, 2/0 (L,R) ch, 192 kbps
скриншот  скриншот  скриншот  скриншот  скриншот  

General
Unique ID : 192582967017815903241323891949620049247 (0x90E2215B11B47BF597A0873AAD3A355F)
Complete name : D:\Pobediteli.2017.WEB-DLRip.(720p).ExKinoRay\Pobediteli.(01.seriya).2017.WEB-DLRip.(720p).ExKinoRay.mkv
Format : Matroska
Format version : Version 4 / Version 2
File size : 1.39 GiB
Duration : 47 min 36 s
Overall bit rate : 4 192 kb/s
Encoded date : UTC 2019-05-13 16:15:17
Writing application : mkvmerge v7.8.0 ('River Man') 32bit built on Mar 27 2015 16:18:02
Writing library : libebml v1.3.1 + libmatroska v1.4.2

Video
ID : 1
Format : AVC
Format/Info : Advanced Video Codec
Format profile : High@L4.1
Format settings : CABAC / 9 Ref Frames
Format settings, CABAC : Yes
Format settings, ReFrames : 9 frames
Codec ID : V_MPEG4/ISO/AVC
Duration : 47 min 36 s
Bit rate : 4 000 kb/s
Width : 1 280 pixels
Height : 720 pixels
Display aspect ratio : 16:9
Frame rate mode : Constant
Frame rate : 25.000 FPS
Color space : YUV
Chroma subsampling : 4:2:0
Bit depth : 8 bits
Scan type : Progressive
Bits/(Pixel*Frame) : 0.174
Stream size : 1.33 GiB (95%)
Writing library : x264 core 146 r2538 121396c
Encoding settings : cabac=1 / ref=9 / deblock=1:-3:-3 / analyse=0x3:0x133 / me=umh / subme=10 / psy=1 / psy_rd=1.00:0.20 / mixed_ref=1 / me_range=32 / chroma_me=1 / trellis=2 / 8x8dct=1 / cqm=0 / deadzone=21,11 / fast_pskip=1 / chroma_qp_offset=-3 / threads=12 / lookahead_threads=8 / sliced_threads=0 / nr=0 / decimate=1 / interlaced=0 / bluray_compat=0 / constrained_intra=0 / bframes=11 / b_pyramid=2 / b_adapt=2 / b_bias=0 / direct=1 / weightb=1 / open_gop=0 / weightp=2 / keyint=250 / keyint_min=25 / scenecut=40 / intra_refresh=0 / rc=2pass / mbtree=0 / bitrate=4000 / ratetol=1.0 / qcomp=0.60 / qpmin=0 / qpmax=69 / qpstep=4 / cplxblur=20.0 / qblur=0.5 / ip_ratio=1.40 / pb_ratio=1.30 / aq=3:1.00
Default : No
Forced : No
Color range : Limited
Color primaries : BT.709
Transfer characteristics : BT.709
Matrix coefficients : BT.709

Audio
ID : 2
Format : AC-3
Format/Info : Audio Coding 3
Codec ID : A_AC3
Duration : 47 min 36 s
Bit rate mode : Constant
Bit rate : 192 kb/s
Channel(s) : 2 channels
Channel positions : Front: L R
Sampling rate : 48.0 kHz
Frame rate : 31.250 FPS (1536 SPF)
Bit depth : 16 bits
Compression mode : Lossy
Stream size : 65.4 MiB (5%)
Language : Russian
Service kind : Complete Main
Default : Yes
Forced : Yes

pb.wtf



Скачать Победители через торрент http://img14.lostpic.net/2019/05/13/6f60648943a6b70a9a6432a4c49a1d4e.jpg Скачать фильм Победители через торрент бесплантно в хорошем качестве Описание: 1895 год. На всю Россию гремит имя знаменитого столичного адвоката Николая Андронова, не проигравшего пока ни одного судебного ... 10 10 2
Торрент: Зарегистрирован [2019-05-18 19:56] · скачан: 17 раз
Статус: √ проверено
Размер: 14.12 GB
Как cкачать? Как скачать Победители через торрент | qTorrent

% Раздел Тема Автор DL S | L
Наши сериалы [ 6.83 GB ] Победители / Сезон: 1 / Серии: 1-10 из 10 [2019 исторический WEB-DLRip] bober100 Скачать
3 | 0
Наши сериалы [ 7.39 GB ] Победители / Сезон: 1 / Серии: 1-10 из 10 [2019 исторический WEBRip-AVC] bober100 Скачать
1 | 0
Наши сериалы [ 20.75 GB ] Победители / Сезон: 1 / Серии: 1-10 из 10 [2019 исторический WEB-DL 1080p] bober100 Скачать
2 | 0


>> Регистрируемся здесь <<






Отзывы и комментарии о схеме читаем и пишем здесь: ---> Отзывы и комментарии о схеме

Новые благодарочки в телеграм довольных пользователей:
скриншот   скриншот   скриншот   скриншот   скриншот
    Дорогой пользователь! Огромная просьба, поблагодарите релизера, оцените раздачу и оставьте свои комментарий, если Вы скачали Победители через торрент бесплатно! Внесите свою лепту в развитие PiratBit!
    Комментировать посты могут только пользователи прошедшие не сложную регистрацию
    Показать сообщения:    

    Победители через торрент
    Скачать бесплатно Победители
    Победители скачать торрент
    Победители смотреть онлайн
    Cкачать фильм Победители бесплатно
    Победители скачать торрент в хорошем качестве
    Победители смотреть онлайн бесплатно в хорошем качестве


    Вы не можете начинать темы
    Вы не можете отвечать на сообщения
    Вы не можете редактировать свои сообщения
    Вы не можете удалять свои сообщения
    Вы не можете голосовать в опросах
    Вы не можете прикреплять файлы к сообщениям
    Вы можете скачивать файлы