MEGA SALE -50% FORZA HORIZON 4 ULTIMATE+ВСЕ DLC+ОНЛАЙН всего за 599р. 299 руб. (супер цена). Внимание количество ограничено!!!

iTunes

1+1

iTunes

мы

iTunes

1

iTunes

Чернобыль

iTunes

Ральф против интернета

Лицензия

ПШазам

Лицензия

Игра престолов

Лицензия

30
pack

ВАЖНО

!!Акция!!

Alien_RageХит недели

RePack

Resident Evil 21

ИГРА 18+

pack

RePack

Metro:Exodus

!!Акция!!

Alien_Rage

RePack

fifa19

RePack

Assassins Creed: Odyssey

RePack

NEED FOR SPEED™ PAYBACK

3 сезон

9 сезон

Бесстыжие 9 сезон

Все сериалы

все сериалы на PB.wtf

RePack

FAR CRY 5
Ребята, катастрофически не хватает 7730р. для оплаты серверов за ИЮЛЬ (всвязи с блокировками трафик упал в 3 раза), 1-2р., выручайте.
  

Победители / Сезон: 1 / Серии: 1-10 из 10 (Ангелина Никонова, Александр Баранов) [2019, Детектив, драма, исторический, WEB-DLRip] pb.wtf

Победители через торрент pb.wtf

Раздают: 1 [ 0 KB/s ]
Размер: 6.83 GB | Добавлен: 3 мес. 7 д. назад | Торрент скачан:82 раза
Скачать  

18-05-2019 20:03 Победители Скачать торрент  

Победители Год выпуска: 2019
Страна: Россия
Жанр: Детектив, драма, исторический
Продолжительность: ~ 00:48:00
Субтитры: отсутствуют

Режиссер: Ангелина Никонова, Александр Баранов



В ролях:

Никита Панфилов, Никита Ефремов, Евгений Антропов, Юлия Пересильд, Анна Чиповская, Фёдор Лавров, Павел Ващилин, Александр Сетейкин, Алексей Павлов (IV), Валентин Самохин, Тимур Бадалбейли, Татьяна Тимакова, Эрика Булатая, Изабель Эйдлен, Анастасия Попова (II)

Описание:

1895 год. На всю Россию гремит имя знаменитого столичного адвоката Николая Андронова, не проигравшего пока ни одного судебного процесса. Его друзья Виктор Роскевич и Михаил Заварзин – тоже блестящие адвокаты. Они побеждают в сложнейших уголовных делах, порой не только оправдывая своих подзащитных, но и изобличая истинных преступников прямо в зале суда. В тяжёлых ситуациях друзья-адвокаты всегда приходят на помощь друг другу. Они ещё достаточно молоды (старшему, Николаю Андронову, всего 35 лет). Все трое абсолютно разные, но каждый готов пожертвовать ради друзей очень многим… Их многолетняя дружба, и осознание того, что есть на кого рассчитывать в трудной ситуации – не в последнюю очередь, делает всех троих ПОБЕДИТЕЛЯМИ. И в профессиональной, и в личной жизни.

Качество: WEB-DLRip
Формат: AVI

Видео: 720x400 (1.80:1), 25 fps, XviD ~1850 kbps avg, 0.257 bit/pixel
Аудио: AC3 Dolby Digital, 48.0 kHz, 2/0 (L,R) ch, 192 kbps
скриншот  скриншот  скриншот  скриншот  скриншот  

General
Complete name : D:\Pobediteli.(2017).WEB-DLRip.ExKinoRay\Pobediteli.e01.(2017).WEB-DLRip.ExKinoRay.avi
Format : AVI
Format/Info : Audio Video Interleave
File size : 699 MiB
Duration : 47 min 36 s
Overall bit rate : 2 054 kb/s
Writing application : VirtualDubMod 1.5.10.2 (build 2540/release)
Writing library : VirtualDubMod build 2540/release

Video
ID : 0
Format : MPEG-4 Visual
Format profile : Advanced Simple@L5
Format settings : BVOP1 / Custom Matrix
Format settings, BVOP : 1
Format settings, QPel : No
Format settings, GMC : No warppoints
Format settings, Matrix : Custom
Codec ID : XVID
Codec ID/Hint : XviD
Duration : 47 min 36 s
Bit rate : 1 852 kb/s
Width : 720 pixels
Height : 400 pixels
Display aspect ratio : 16:9
Frame rate : 25.000 FPS
Color space : YUV
Chroma subsampling : 4:2:0
Bit depth : 8 bits
Scan type : Progressive
Compression mode : Lossy
Bits/(Pixel*Frame) : 0.257
Stream size : 631 MiB (90%)
Writing library : XviD 73

Audio
ID : 1
Format : AC-3
Format/Info : Audio Coding 3
Codec ID : 2000
Duration : 47 min 36 s
Bit rate mode : Constant
Bit rate : 192 kb/s
Channel(s) : 2 channels
Channel positions : Front: L R
Sampling rate : 48.0 kHz
Frame rate : 31.250 FPS (1536 SPF)
Bit depth : 16 bits
Compression mode : Lossy
Stream size : 65.4 MiB (9%)
Alignment : Split accross interleaves
Interleave, duration : 40 ms (1.00 video frame)
Interleave, preload duratio : 500 ms
Service kind : Complete Main

pb.wtf



Скачать Победители через торрент http://img14.lostpic.net/2019/05/13/6f60648943a6b70a9a6432a4c49a1d4e.jpg Скачать фильм Победители через торрент бесплантно в хорошем качестве Описание: 1895 год. На всю Россию гремит имя знаменитого столичного адвоката Николая Андронова, не проигравшего пока ни одного судебного ... 9.8 10 4
Торрент: Зарегистрирован [2019-05-18 20:03] · скачан: 82 раз
Статус: √ проверено
Размер: 6.83 GB
Как cкачать? Как скачать Победители через торрент | qTorrent

% Раздел Тема Автор DL S | L
Наши сериалы [ 14.12 GB ] Победители / Сезон: 1 / Серии: 1-10 из 10 [2019 исторический WEB-DL 720p] bober100 Скачать
2 | 0
Наши сериалы [ 7.39 GB ] Победители / Сезон: 1 / Серии: 1-10 из 10 [2019 исторический WEBRip-AVC] bober100 Скачать
2 | 0
Наши сериалы [ 20.75 GB ] Победители / Сезон: 1 / Серии: 1-10 из 10 [2019 исторический WEB-DL 1080p] bober100 Скачать
1 | 0


>> Регистрируемся здесь <<






Отзывы и комментарии о схеме читаем и пишем здесь: ---> Отзывы и комментарии о схеме

Новые благодарочки в телеграм довольных пользователей:
скриншот   скриншот   скриншот   скриншот   скриншот
    Дорогой пользователь! Огромная просьба, поблагодарите релизера, оцените раздачу и оставьте свои комментарий, если Вы скачали Победители через торрент бесплатно! Внесите свою лепту в развитие PiratBit!
    Комментировать посты могут только пользователи прошедшие не сложную регистрацию
    Показать сообщения:    

    Победители через торрент
    Скачать бесплатно Победители
    Победители скачать торрент
    Победители смотреть онлайн
    Cкачать фильм Победители бесплатно
    Победители скачать торрент в хорошем качестве
    Победители смотреть онлайн бесплатно в хорошем качестве


    Вы не можете начинать темы
    Вы не можете отвечать на сообщения
    Вы не можете редактировать свои сообщения
    Вы не можете удалять свои сообщения
    Вы не можете голосовать в опросах
    Вы не можете прикреплять файлы к сообщениям
    Вы можете скачивать файлы