Ссылка на приватное зеркало нашего сайта всего за 1$. Внимание количество ограничено!!!

2 сезон

iTunes

1 сезон

1

iTunes

iTunes

iTunes

1 сезон

RePack

30

ИГРА 18+

pack

ВАЖНО

!!Акция!!

Alien_RageХит недели

RePack

MK11
pack

Забери бонус

RePack

jed

!!Акция!!

Alien_Rage

RePack

fifa19

RePack

Assassins Creed: Odyssey

RePack

NEED FOR SPEED™ PAYBACK

4 сезон

9 сезон

Бесстыжие 9 сезон

Все сериалы

все сериалы на PB.wtf

RePack

FAR CRY 5
  

Юристы / Сезон: 1 / Серии: 1-18 из 18 (Павел Игнатов) [2019, Детектив, WEB-DLRip] pb.wtf

Юристы через торрент pb.wtf

Размер: 11.04 GB | Добавлен: 1 год 5 мес. назад | Торрент скачан:47 раз
Скачать  

18-05-2019 20:22 Юристы Скачать торрент  

Юристы Год выпуска: 2019
Страна: Россия
Жанр: Детектив
Продолжительность: ~ 00:46:00
Субтитры: отсутствуют

Режиссер: Павел Игнатов



В ролях:

Артём Ткаченко, Инна Хотеенкова, Андрей Иванов (IV), Андрей Лукьянов, Татьяна Шкрабак, Владислав Ветров, Арсений Фогелев, Мария Пирогова, Виктория Лукина, Владимир Тебенко, Наталия Колоскова, Олег Метелев, Марина Вайнбранд, Юлия Гребеник, Наталия Колодяжная

Описание:

Сюжет истории разворачивается вокруг жизни провинциального адвокатского бюро, где волею судьбы оказался блестящий московский адвокат Артём Сотников. Острый и нестандартный ум, авантюризм, умение пройти по лезвию между законом и беззаконием, моралью и аморальностью – вот то, что отличает нашего героя. Но, кажется, жарких схваток в зале суда Сотникову недостаточно – он влюбляется в старшего партнера Бюро Алину Кочубей и вступает в противостояние с ее мужем, прокурором города Ворониным. Будни адвокатов, их победы и провалы, любовь и ненависть, дружбу и непримиримую вражду, и, конечно, истории с клиентами, их проблемами, которые адвокаты должны решать – вот то, что увидит зритель в новом проекте.

Качество: WEB-DLRip
Формат: AVI

Видео: XviD, ~ 1700 Кбит/с, 720x400
Аудио: AC3, 48.0 kHz, 2/0 (L,R) ch, 192 kbps
скриншот  скриншот  скриншот  скриншот  

Общее
Полное имя : D:\Юристы.2019.WEB-DLRip.Files-x\01. Юристы.2019.WEB-DLRip.Files-x.avi
Формат : AVI
Формат/Информация : Audio Video Interleave
Размер файла : 514 Мбайт
Продолжительность : 39 м. 54 с.
Общий поток : 1802 Кбит/сек
Программа кодирования : VirtualDubMod 1.5.10.3 | www.virtualdub-fr.org || (build 2550/release)
Библиотека кодирования : VirtualDubMod build 2550/release

Видео
Идентификатор : 0
Формат : MPEG-4 Visual
Профиль формата : Advanced Simple@L5
Параметр BVOP формата : 1
Параметр QPel формата : Нет
Параметр GMC формата : Без точки перехода
Параметр матрицы формата : Выборочная
Идентификатор кодека : XVID
Идентификатор кодека/Подсказка : XviD
Продолжительность : 39 м. 54 с.
Битрейт : 1600 Кбит/сек
Ширина : 720 пикселей
Высота : 400 пикселей
Соотношение сторон : 16:9
Частота кадров : 25,000 кадров/сек
Цветовое пространство : YUV
Субдискретизация насыщенности : 4:2:0
Битовая глубина : 8 бит
Тип развёртки : Прогрессивная
Метод сжатия : С потерями
Бит/(Пиксели*Кадры) : 0.222
Размер потока : 457 Мбайт (89%)
Библиотека кодирования : XviD 73

Аудио
Идентификатор : 1
Формат : AC-3
Формат/Информация : Audio Coding 3
Расширение режима : CM (complete main)
Параметр Endianness формата : Big
Идентификатор кодека : 2000
Продолжительность : 39 м. 54 с.
Вид битрейта : Постоянный
Битрейт : 192 Кбит/сек
Каналы : 2 канала
Расположение каналов : Front: L R
Частота : 48,0 КГц
Частота кадров : 31,250 кадров/сек (1536 spf)
Метод сжатия : С потерями
Размер потока : 54,8 Мбайт (11%)
Выравнивание : Разделение по промежуткам
Продолжительность промежутка : 40 мс. (1,00 видеокадр)
Время предзагрузки промежутка : 500 мс.

pb.wtf



Скачать Юристы через торрент http://img14.lostpic.net/2019/05/03/e848763478da4893b581ba5459a3e36d.jpg Скачать фильм Юристы через торрент бесплантно в хорошем качестве Описание: Сюжет истории разворачивается вокруг жизни провинциального адвокатского бюро, где волею судьбы оказался блестящий московский ... 9.7 10 3
Торрент: Зарегистрирован [2019-05-18 20:22] · скачан: 47 раз
Статус: √ проверено
Размер: 11.04 GB
Как cкачать? Как скачать Юристы через торрент | qTorrent

% Раздел Тема Автор DL S | L
Наши сериалы [ 13.44 GB ] Юристы / Сезон: 1 / Серии: 1-18 из 18 [2019 WEBRip-AVC] bober100 Скачать
1 | 0
Наши сериалы [ 25.71 GB ] Юристы / Сезон: 1 / Серии: 1-18 из 18 [2019 WEB-DL 720p] bober100 Скачать
1 | 0
Наши сериалы [ 10.54 GB ] Юристы / Сезон: 1 / Серии: 1-18 из 18 [2019 SATRip] bober100 Скачать
1 | 0
Наши сериалы [ 36.14 GB ] Юристы / Сезон: 1 / Серии: 1-18 из 18 [2019 WEB-DL 1080p] bober100 Скачать
1 | 0

28-11-2019 20:33  

Отключить всю рекламу на сайте

    Дорогой пользователь! Огромная просьба, поблагодарите релизера, оцените раздачу и оставьте свои комментарий, если Вы скачали Юристы через торрент бесплатно! Внесите свою лепту в развитие PiratBit!
    Комментировать посты могут только пользователи прошедшие не сложную регистрацию
    Показать сообщения:    

    Юристы через торрент
    Скачать бесплатно Юристы
    Юристы скачать торрент
    Юристы смотреть онлайн
    Cкачать фильм Юристы бесплатно
    Юристы скачать торрент в хорошем качестве
    Юристы смотреть онлайн бесплатно в хорошем качестве


    Вы не можете начинать темы
    Вы не можете отвечать на сообщения
    Вы не можете редактировать свои сообщения
    Вы не можете удалять свои сообщения
    Вы не можете голосовать в опросах
    Вы не можете прикреплять файлы к сообщениям
    Вы можете скачивать файлы