Ссылка на приватное зеркало всего за 1$. Внимание количество ограничено!!!

OK

1+1

iTunes

мы

OK

1

WEB-DLRip

Джокер

Пифагор

Ведьмак / The Witcher сериал

Лицензия

ПШазам

ОК

Оно 2

iTunes

30
pack

Вам бонус

ВАЖНО

!!Акция!!

Alien_RageХит недели

RePack

Resident Evil 21

ИГРА 18+

pack

RePack

jed

RePack

fifa19

RePack

Assassins Creed: Odyssey

RePack

NEED FOR SPEED™ PAYBACK

4 сезон

9 сезон

Бесстыжие 9 сезон

Все сериалы

все сериалы на PB.wtf

RePack

FAR CRY 5
  

Наполненное верой Рождество / Faith Filled Christmas (Дон МакЧесни) [2017, драма, WEB-DL 720p] MVO ["Синема УС"] pb.wtf

Наполненное верой Рождество через торрент pb.wtf

Размер: 3.75 GB | Добавлен: 8 мес. назад | Торрент скачан:3 раза
Скачать  

19-05-2019 05:25 Наполненное верой Рождество Скачать торрент  

Наполненное верой Рождество / Faith Filled Christmas Год выпуска: 2017
Страна: США
Жанр: драма
Продолжительность: 01:34:04
Перевод: Любительский (многоголосый) | "Синема УС"
Субтитры: отсутствуют

Режиссер: Дон МакЧесни

rating

В ролях: Анна Алайо, Пол Эпплгейт, Мерлин Асенсиоv

Описание: Три поколения семьи Фэрвей уверены, что и в рождественскую пору не стоит забывать о Боге, поэтому они помогают ближним, занимаясь усыновлением, активно участвуя в жизни пенсионеров и помогая бездомным людям.

Качество: WEB-DL 720p
Формат: MKV

Видео: h.264,5 324 Кбит/с, 1280x544
Аудио: Русский, (AC3, 2 ch, 384 Кбит/с)
скриншот  скриншот  скриншот  

Общее
Уникальный идентификатор : 240596784320190822248697751558005328250 (0xB5014151274820E69835F4E6D902097A)
Полное имя : D:\Faith.Filled.Christmas.2O17.P.WEB-DL.72Op.mkv
Формат : Matroska
Версия формата : Version 2
Размер файла : 3,75 Гбайт
Продолжительность : 1 ч. 34 м.
Режим общего битрейта : Переменный
Общий поток : 5710 Кбит/сек
Дата кодирования : UTC 2019-05-17 05:03:13
Программа кодирования : mkvmerge v8.3.0 ('Over the Horizon') 64bit
Библиотека кодирования : libebml v1.3.1 + libmatroska v1.4.2

Видео
Идентификатор : 1
Формат : AVC
Формат/Информация : Advanced Video Codec
Профиль формата : High@L4.1
Параметр CABAC формата : Да
Параметр RefFrames формата : 4 кадра
Идентификатор кодека : V_MPEG4/ISO/AVC
Продолжительность : 1 ч. 34 м.
Вид битрейта : Переменный
Битрейт : 5324 Кбит/сек
Максимальный битрейт : 6000 Кбит/сек
Ширина : 1280 пикселей
Высота : 544 пикселя
Соотношение сторон : 2,35:1
Режим частоты кадров : Постоянный
Частота кадров : 23,976 (24000/1001) кадра/сек
Стандарт вещания : Component
Цветовое пространство : YUV
Субдискретизация насыщенности : 4:2:0
Битовая глубина : 8 бит
Тип развёртки : Прогрессивная
Бит/(Пиксели*Кадры) : 0.312
Размер потока : 3,43 Гбайт (91%)
Default : Да
Forced : Нет
Цветовой диапазон : Limited
Основные цвета : BT.709
Характеристики трансфера : BT.709
Коэффициенты матрицы : BT.709

Аудио
Идентификатор : 2
Формат : AC-3
Формат/Информация : Audio Coding 3
Расширение режима : CM (complete main)
Параметр Endianness формата : Big
Идентификатор кодека : A_AC3
Продолжительность : 1 ч. 34 м.
Вид битрейта : Постоянный
Битрейт : 384 Кбит/сек
Каналы : 2 канала
Расположение каналов : Front: L R
Частота : 48,0 КГц
Частота кадров : 31,250 кадров/сек (1536 spf)
Метод сжатия : С потерями
Размер потока : 258 Мбайт (7%)
Default : Да
Forced : Нет

pb.wtf



Скачать Наполненное верой Рождество через торрент https://d.radikal.ru/d14/1905/6e/015b6eac11bb.jpg Скачать фильм Наполненное верой Рождество через торрент бесплантно в хорошем качестве Описание: Три поколения семьи Фэрвей уверены, что и в рождественскую пору не стоит забывать о Боге, поэтому они помогают ближним, занимаясь ... 10 10 2
Торрент: Зарегистрирован [2019-05-19 05:25] · скачан: 3 раз
Статус: T временная
Размер: 3.75 GB
Как cкачать? Как скачать Наполненное верой Рождество через торрент | qTorrent

% Раздел Тема Автор DL S | L
T Фильмы (мультфильмы) cо спонсором показа (Новинки AVI/MKV) [ 1.37 GB ] Наполненное верой Рождество / Faith Filled Christmas [2017 WEB-DLRip] MVO ["Синема УС"] bober100 Скачать
1 | 0

28-11-2019 20:33  

Отключить всю рекламу на сайте

    Дорогой пользователь! Огромная просьба, поблагодарите релизера, оцените раздачу и оставьте свои комментарий, если Вы скачали Наполненное верой Рождество через торрент бесплатно! Внесите свою лепту в развитие PiratBit!
    Комментировать посты могут только пользователи прошедшие не сложную регистрацию
    Показать сообщения:    

    Наполненное верой Рождество через торрент
    Скачать бесплатно Наполненное верой Рождество
    Наполненное верой Рождество скачать торрент
    Наполненное верой Рождество смотреть онлайн
    Cкачать фильм Наполненное верой Рождество бесплатно
    Наполненное верой Рождество скачать торрент в хорошем качестве
    Наполненное верой Рождество смотреть онлайн бесплатно в хорошем качестве


    Вы не можете начинать темы
    Вы не можете отвечать на сообщения
    Вы не можете редактировать свои сообщения
    Вы не можете удалять свои сообщения
    Вы не можете голосовать в опросах
    Вы не можете прикреплять файлы к сообщениям
    Вы можете скачивать файлы