Ссылка на приватное зеркало нашего сайта всего за 1$. Внимание количество ограничено!!!

2 сезон

iTunes

1 сезон

1

2 сезон

2 сезон

iTunes

1 сезон

RePack

30

Ultimate

ВАЖНО

ИГРА 18+

pack

RePack

MK11
pack

Забери бонус

RePack

jed

!!Акция!!

Alien_Rage

RePack

fifa19

RePack

Assassins Creed: Odyssey

RePack

NEED FOR SPEED™ PAYBACK

4 сезон

9 сезон

Бесстыжие 9 сезон

Все сериалы

все сериалы на PB.wtf

RePack

FAR CRY 5
  

Дар (Михаил Кукушкин) [2019, комедия, WEB-DLRip-AVC] [iTunes] pb.wtf

Дар через торрент pb.wtf

Раздают: 2 [ 0 KB/s ]
Размер: 1.9 GB | Добавлен: 8 мес. назад | Торрент скачан:130 раз
Скачать  

19-05-2019 05:42 Дар Скачать торрент  

Дар
Год выпуска: 2019
Страна: Россия
Жанр: комедия
Продолжительность: 01:34:50
Перевод: Не требуется | iTunes
Субтитры: отсутствуют

Режиссер: Михаил Кукушкин



В ролях: Алексей Колубков, Юрий Оборотов, Владимир Карпук, Валерия Дергилева, Светлана Бобкина, Евгений Зеленов, Ульяна Глушкова, Алёна Константинова, Виктория Пятакина

Описание: Толя Сидоров - простой рабочий предпенсионного возраста из российской глубинки - неожиданно открывает у себя талант художника и становится сенсацией в мире современного искусства. А все это из-за того, что создание «шедевров» происходит в очень интимный момент...

Слава о необычном художнике разлетается по Интернету, и на выставку уринальной живописи Анатолия приезжают ценители даже из Москвы. Как в русской сказке, на героя чудесным образом сваливается признание и деньги, но Толя предпочитает сохранять инкогнито, пытаясь понять, а творчество ли это. Да и мужики с завода засмеют, если узнают.

Качество: WEB-DLRip-AVC
Формат: MKV

Видео: MPEG-4 AVC/H.264, 2500 Кбит/сек, 1024x576
Аудио: Русский, (AC3, 6 ch, 384 Кбит/с)
скриншот  скриншот  скриншот  

Общее
Уникальный идентификатор : 192680118999170075802196184249825738489 (0x90F4D75177EBC4DD10FA90578B8BBEF9)
Полное имя : F:\РЕЛИЗЫ ФИЛЬМОВ\02. ФИЛЬМЫ СНГ\Дар (2018)\Dar (2018).mkv
Формат : Matroska
Версия формата : Version 4
Размер файла : 1,90 Гбайт
Продолжительность : 1 ч. 34 м.
Общий поток : 2871 Кбит/сек
Программа кодирования : Lavf
Библиотека кодирования : Lavf
Авторское право : «CBAT»
ErrorDetectionType : Per level 1
Attachments : poster.jpg
Язык : und

Видео
Идентификатор : 1
Формат : AVC
Формат/Информация : Advanced Video Codec
Профиль формата : High@L4.1
Настройки формата : 9 Ref Frames
Параметр CABAC формата : Нет
Параметр RefFrames формата : 9 кадров
Идентификатор кодека : V_MPEG4/ISO/AVC
Продолжительность : 1 ч. 34 м.
Битрейт : 2500 Кбит/сек
Ширина : 1024 пикселя
Высота : 576 пикселей
Соотношение сторон : 16:9
Режим частоты кадров : Постоянный
Частота кадров : 29,970 (30000/1001) кадров/сек
Цветовое пространство : YUV
Субдискретизация насыщенности : 4:2:0
Битовая глубина : 8 бит
Тип развёртки : Прогрессивная
Бит/(Пиксели*Кадры) : 0.141
Размер потока : 1,61 Гбайт (85%)
Заголовок : Russia (ARTLIGHT, Invada film)
Библиотека кодирования : x264 core 157 r2958 57baac4
Настройки программы : cabac=0 / ref=10 / deblock=1:-3:-3 / analyse=0x3:0x133 / me=umh / subme=11 / psy=1 / psy_rd=1.05:0.10 / mixed_ref=1 / me_range=32 / chroma_me=1 / trellis=2 / 8x8dct=1 / cqm=0 / deadzone=21,11 / fast_pskip=0 / chroma_qp_offset=-3 / threads=12 / lookahead_threads=1 / sliced_threads=0 / nr=0 / decimate=1 / interlaced=0 / bluray_compat=0 / constrained_intra=0 / bframes=10 / b_pyramid=1 / b_adapt=1 / b_bias=10 / direct=1 / weightb=1 / open_gop=0 / weightp=1 / keyint=300 / keyint_min=30 / scenecut=40 / intra_refresh=0 / rc_lookahead=60 / rc=abr / mbtree=1 / bitrate=2500 / ratetol=1.0 / qcomp=0.70 / qpmin=3 / qpmax=69 / qpstep=4 / ip_ratio=1.40 / aq=2:1.00
Default : Да
Forced : Нет
Цветовой диапазон : Limited
Основные цвета : BT.709
Характеристики трансфера : BT.709
Коэффициенты матрицы : BT.709

Аудио
Идентификатор : 2
Формат : AC-3
Формат/Информация : Audio Coding 3
Коммерческое название : Dolby Digital
Идентификатор кодека : A_AC3
Продолжительность : 1 ч. 34 м.
Вид битрейта : Постоянный
Битрейт : 384 Кбит/сек
Каналы : 6 каналов
ChannelLayout : L R C LFE Ls Rs
Частота : 48,0 КГц
Частота кадров : 31,250 кадров/сек (1536 SPF)
Битовая глубина : 32 бит
Метод сжатия : С потерями
Размер потока : 261 Мбайт (13%)
Заголовок : Original (iTunes)
ServiceKind/String : Complete Main
Default : Да
Forced : Нет
pb.wtf



Скачать Дар через торрент https://a.radikal.ru/a22/2003/eb/98cc084652d9.png Скачать фильм Дар через торрент бесплантно в хорошем качестве Описание: Толя Сидоров - простой рабочий предпенсионного возраста из российской глубинки - неожиданно открывает у себя талант художника и ... 8.4 10 9
Торрент: Зарегистрирован [2020-03-03 09:10] · скачан: 130 раз
Статус: √ проверено
Размер: 1.9 GB
Как cкачать? Как скачать Дар через торрент | qTorrent

% Раздел Тема Автор DL S | L
Иностранные мультфильмы [ 1.37 GB ] Мулан 2 / Mulan II [2004 мультфильм DVDRip] Anonymous Скачать
5 | 0
Фильмы 2006-2008 [ 2.35 GB ] Мгла / Mist The [2007 ... BDRip ] stalone Скачать
2 | 0
Ходячие мертвецы (The Walking Dead) [ 2.46 GB ] Ходячие Мертвецы / The Walking Dead / Сезон: 1 / Серии: 1-6 [2010 HDTVRip] lyokaa Скачать
1 | 0
Кино СССР [ 2.05 GB ] Служебный роман / Sluzhebnyy roman [1977 DVDRip] Shmel Скачать
4 | 0
Кино СССР [ 2.05 GB ] Они сражались за Родину [1975 военный DVDRip] ДениС22 Скачать
1 | 0
Сборники на DVD и Сиквелы [DVDrip, WEB-DLRip, HDrip, BDRip] [ 13.08 GB ] Пила 123456 / Saw 123456 [2004-2009 BDRip] SD Скачать
1 | 0
Наши фильмы, до 2010 [ 1.37 GB ] Обитаемый остров: Схватка [2009 DVDRip] DEVI Скачать
1 | 0

28-11-2019 20:33  

Отключить всю рекламу на сайте

    Дорогой пользователь! Огромная просьба, поблагодарите релизера, оцените раздачу и оставьте свои комментарий, если Вы скачали Дар через торрент бесплатно! Внесите свою лепту в развитие PiratBit!
    Комментировать посты могут только пользователи прошедшие не сложную регистрацию
    Показать сообщения:    

    Дар через торрент
    Скачать бесплатно Дар
    Дар скачать торрент
    Дар смотреть онлайн
    Cкачать фильм Дар бесплатно
    Дар скачать торрент в хорошем качестве
    Дар смотреть онлайн бесплатно в хорошем качестве


    Вы не можете начинать темы
    Вы не можете отвечать на сообщения
    Вы не можете редактировать свои сообщения
    Вы не можете удалять свои сообщения
    Вы не можете голосовать в опросах
    Вы не можете прикреплять файлы к сообщениям
    Вы можете скачивать файлы