Marvel's Avengers Deluxe Edition (супер цена) 159р. Внимание количество ограничено!!!

2 сезон

iTunes

iTunes

1

iTunes

iTunes

iTunes

WEBRip

iTunes

30
pack

Новость дня

ВАЖНО

!!Акция!!

Alien_RageХит недели

RePack

Horizon Zero Dawn

ИГРА 18+

pack

RePack

jed

!!Акция!!

Alien_Rage

RePack

fifa19

RePack

Assassins Creed: Odyssey

RePack

NEED FOR SPEED™ PAYBACK

4 сезон

9 сезон

Бесстыжие 9 сезон

Все сериалы

все сериалы на PB.wtf

RePack

FAR CRY 5
  

Безумная гонка / Crazy Journey (Татсуно) [2017, драма, комедия, WEB-DL 720p] MVO ["Синема УС"] pb.wtf

Безумная гонка через торрент pb.wtf

Размер: 3.16 GB | Добавлен: 1 год 4 мес. назад | Торрент скачан:14 раз
Скачать  

19-05-2019 05:58 Безумная гонка Скачать торрент  

Безумная гонка / Crazy JourneyГод выпуска: 2017
Страна: Китай
Жанр: драма, комедия
Продолжительность: 01:32:45
Перевод: Любительский (многоголосый) | "Синема УС"
Субтитры: отсутствуют

Режиссер: Татсуно



В ролях: Лю Лян, Бай Гэ, Лу Цзинь, Гуань Сихуэй, Сюй Гуанмин

Описание: Когда компания Дачаня оказывается на грани банкротства, и он по уши увязает в долгах, ему на помощь приходит его коллега Юнчао. Вместе они удирают от преследователей, которые грозятся отрубить им ноги, и ищут способ выкрутиться из этой заварушки.

Качество: WEB-DL 720p
Формат: MKV

Видео: h.264, 4489 Кбит/с, 1280x620
Аудио: Русский, (AC3, 2 ch, 384 Кбит/с)
скриншот  скриншот  скриншот  

Общее
Уникальный идентификатор : 192368579441664333916800370349603172071 (0x90B8D73B6E4FAB948230F64130CA2EE7)
Полное имя : D:\Crazy.Journey.2O17.Pk.WEB-DL.72Op.mkv
Формат : Matroska
Версия формата : Version 2
Размер файла : 3,16 Гбайт
Продолжительность : 1 ч. 32 м.
Режим общего битрейта : Переменный
Общий поток : 4875 Кбит/сек
Дата кодирования : UTC 2019-05-17 15:22:41
Программа кодирования : mkvmerge v8.3.0 ('Over the Horizon') 64bit
Библиотека кодирования : libebml v1.3.1 + libmatroska v1.4.2

Видео
Идентификатор : 1
Формат : AVC
Формат/Информация : Advanced Video Codec
Профиль формата : High@L4.1
Параметр CABAC формата : Да
Параметр RefFrames формата : 4 кадра
Идентификатор кодека : V_MPEG4/ISO/AVC
Продолжительность : 1 ч. 32 м.
Вид битрейта : Переменный
Битрейт : 4489 Кбит/сек
Максимальный битрейт : 5000 Кбит/сек
Ширина : 1280 пикселей
Высота : 620 пикселей
Соотношение сторон : 2,065
Режим частоты кадров : Постоянный
Частота кадров : 23,976 (24000/1001) кадра/сек
Стандарт вещания : Component
Цветовое пространство : YUV
Субдискретизация насыщенности : 4:2:0
Битовая глубина : 8 бит
Тип развёртки : Прогрессивная
Бит/(Пиксели*Кадры) : 0.231
Размер потока : 2,85 Гбайт (90%)
Default : Да
Forced : Нет
Цветовой диапазон : Limited
Основные цвета : BT.709
Характеристики трансфера : BT.709
Коэффициенты матрицы : BT.709

Аудио
Идентификатор : 2
Формат : AC-3
Формат/Информация : Audio Coding 3
Расширение режима : CM (complete main)
Параметр Endianness формата : Big
Идентификатор кодека : A_AC3
Продолжительность : 1 ч. 32 м.
Вид битрейта : Постоянный
Битрейт : 384 Кбит/сек
Каналы : 2 канала
Расположение каналов : Front: L R
Частота : 48,0 КГц
Частота кадров : 31,250 кадров/сек (1536 spf)
Метод сжатия : С потерями
Размер потока : 255 Мбайт (8%)
Default : Да
Forced : Нет

pb.wtf



Скачать Безумная гонка через торрент https://d.radikal.ru/d11/1905/55/ab7e95c4068a.jpg Скачать фильм Безумная гонка через торрент бесплантно в хорошем качестве Описание: Когда компания Дачаня оказывается на грани банкротства, и он по уши увязает в долгах, ему на помощь приходит его коллега Юнчао. ... 10 10 3
Торрент: Зарегистрирован [2019-05-19 05:58] · скачан: 14 раз
Статус: T временная
Размер: 3.16 GB
Как cкачать? Как скачать Безумная гонка через торрент | qTorrent

% Раздел Тема Автор DL S | L
T Фильмы (мультфильмы) cо спонсором показа (Новинки AVI/MKV) [ 1.37 GB ] Безумная гонка / Crazy Journey [2017 WEB-DLRip] MVO ["Синема УС"] bober100 Скачать
1 | 0

28-11-2019 20:33  

Отключить всю рекламу на сайте

    Дорогой пользователь! Огромная просьба, поблагодарите релизера, оцените раздачу и оставьте свои комментарий, если Вы скачали Безумная гонка через торрент бесплатно! Внесите свою лепту в развитие PiratBit!
    Комментировать посты могут только пользователи прошедшие не сложную регистрацию
    Показать сообщения:    

    Безумная гонка через торрент
    Скачать бесплатно Безумная гонка
    Безумная гонка скачать торрент
    Безумная гонка смотреть онлайн
    Cкачать фильм Безумная гонка бесплатно
    Безумная гонка скачать торрент в хорошем качестве
    Безумная гонка смотреть онлайн бесплатно в хорошем качестве


    Вы не можете начинать темы
    Вы не можете отвечать на сообщения
    Вы не можете редактировать свои сообщения
    Вы не можете удалять свои сообщения
    Вы не можете голосовать в опросах
    Вы не можете прикреплять файлы к сообщениям
    Вы можете скачивать файлы