Мега распродажа FORZA HORIZON 4 ULTIMATE+ВСЕ DLC+ОНЛАЙН всего за 499р. 349 руб. (супер цена). Внимание количество ограничено!!!

Лицензия

30

iTunes

мы

iTunes

1

1 сезон

Чернобыль

1 сезон

Ральф против интернета

MVO

Покемон. Детектив Пикачу

8 сезон

Игра престолов

iTunes

1+1

ИГРА 18+

pack

ВАЖНО

!!Акция!!

Alien_RageХит недели

RePack

Resident Evil 21
pack

RePack

Metro:Exodus

!!Акция!!

Alien_Rage

RePack

fifa19

RePack

Assassins Creed: Odyssey

RePack

NEED FOR SPEED™ PAYBACK

3 сезон

9 сезон

Бесстыжие 9 сезон

Все сериалы

все сериалы на PB.wtf

RePack

FAR CRY 5
Ребята, катастрофически не хватает 2730р. для оплаты серверов за МАЙ (всвязи с блокировками трафик упал в 3 раза), 1-2р., выручайте.
  

Железное небо 2: Грядущая раса / Iron Sky: The Coming Race (Тимо Вуоренсола) [2019, Фантастика, боевик, комедия, приключения, BDRip-AVC] MVO [HDRezka Studio] +AVO [BadBajo] pb.wtf

Железное небо 2: Грядущая раса через торрент pb.wtf

Раздают: 23 [ 278 KB/s ]
Размер: 2.84 GB | Добавлен: 28 д. назад | Торрент скачан:543 раза
Скачать  

19-05-2019 06:47 Железное небо 2: Грядущая раса Скачать торрент  

Железное небо 2: Грядущая раса / Iron Sky: The Coming Race
Год выпуска: 2019
Страна: Финляндия, Германия, Бельгия
Жанр: Фантастика, боевик, комедия, приключения
Продолжительность: 01:32:45
Перевод:

Профессиональный (многоголосый) | HDRezka Studio
Авторский (одноголосый, закадровый) | BadBajo

Субтитры: английские

Режиссер: Тимо Вуоренсола

rating

В ролях:

Лара Росси, Владимир Бурлаков, Кит Дэйл, Том Грин, Юлия Дитце, Эдвард Джадж, Мартин Сваби, Эмили Атак, Удо Кир, Джон Фландерс

Описание:

Спустя 20 лет после событий первого фильма остатки человечества вынуждены переселиться на ту самую базу, основанную в 1945 году сбежавшими нацистами на тёмной стороне Луны — жизнь на планете Земля погибла после разрушительной ядерной войны. Но в пустыне, лежащей посреди ядерной зимы, имеется секрет, касающийся появления человеческой расы, и этот секрет способен возродить былое величие людей или навеки похоронить их надежды на возвращение домой. Отряд людей во главе с отважной Оби Вашингтон отправится на Землю, чтобы бросить вызов армии рептилий Врила — древней космической расы, которая захватила половину галактики и Землю в том числе.

Качество: BDRip-AVC
Формат: MKV

Видео: x264, ~3296 Kбит/с, 1118x468, 23.976 кадр/с
Аудио#1: 48 kHz, AC3, 2 ch, ~192 Kbps | RUS | MVO
Аудио#2: 48 kHz, AC3, 6 ch, ~448 Kbps | RUS | AVO
Аудио#3: 48 kHz, AC3, 6 ch, ~448 Kbps | ENG |
скриншот  скриншот  скриншот  скриншот  

x264 info: frame I:989 Avg QP:15.68 size: 81051
x264 info: frame P:30144 Avg QP:17.23 size: 33435
x264 info: frame B:102299 Avg QP:19.69 size: 11777
x264 info: consecutive B-frames: 1.9% 5.6% 7.3% 21.2% 18.7% 36.3% 4.6% 1.1% 1.1% 0.5% 0.4% 0.5% 0.9%

General
Unique ID : 333719724039258825370482186725406112715 (0xFB1014B9880D7861AEB5A8BE9D657BCB)
Complete name : Железное небо 2.(2019).BDRip-AVC.[-=DoMiNo=-].mkv
Format : Matroska
Format version : Version 4
File size : 2.84 GiB
Duration : 1 h 32 min
Overall bit rate : 4 387 kb/s
Movie name : Железное небо 2: Грядущая раса
Encoded date : UTC 2019-05-19 06:06:54
Writing application : mkvmerge v34.0.0 ('Sight and Seen') 64-bit
Writing library : libebml v1.3.7 + libmatroska v1.5.0
Attachments : poster.jpg

Video
ID : 1
Format : AVC
Format/Info : Advanced Video Codec
Format profile : High@L4.1
Format settings : CABAC / 15 Ref Frames
Format settings, CABAC : Yes
Format settings, Reference : 15 frames
Codec ID : V_MPEG4/ISO/AVC
Duration : 1 h 32 min
Bit rate : 3 296 kb/s
Width : 1 118 pixels
Height : 468 pixels
Display aspect ratio : 2.40:1
Frame rate mode : Constant
Frame rate : 23.976 (24000/1001) FPS
Color space : YUV
Chroma subsampling : 4:2:0
Bit depth : 8 bits
Scan type : Progressive
Bits/(Pixel*Frame) : 0.263
Stream size : 2.14 GiB (75%)
Title : RIP_BY_-=DoMiNo=-
Writing library : x264 core 157 r2935 545de2f
Encoding settings : cabac=1 / ref=15 / deblock=1:-3:-3 / analyse=0x3:0x133 / me=umh / subme=11 / psy=1 / psy_rd=1.05:0.10 / mixed_ref=1 / me_range=48 / chroma_me=1 / trellis=2 / 8x8dct=1 / cqm=0 / deadzone=21,11 / fast_pskip=1 / chroma_qp_offset=-3 / threads=6 / lookahead_threads=1 / sliced_threads=0 / nr=0 / decimate=1 / interlaced=0 / bluray_compat=0 / constrained_intra=0 / bframes=12 / b_pyramid=2 / b_adapt=2 / b_bias=0 / direct=1 / weightb=1 / open_gop=0 / weightp=2 / keyint=250 / keyint_min=23 / scenecut=40 / intra_refresh=0 / rc=crf / mbtree=0 / crf=17.5 / qcomp=0.60 / qpmin=0 / qpmax=69 / qpstep=4 / ip_ratio=1.40 / pb_ratio=1.30 / aq=3:0.80
Language : English
Default : Yes
Forced : No
Color range : Limited
Color primaries : BT.709
Transfer characteristics : BT.709
Matrix coefficients : BT.709

Audio #1
ID : 2
Format : AC-3
Format/Info : Audio Coding 3
Commercial name : Dolby Digital
Codec ID : A_AC3
Duration : 1 h 32 min
Bit rate mode : Constant
Bit rate : 192 kb/s
Channel(s) : 2 channels
Channel layout : L R
Sampling rate : 48.0 kHz
Frame rate : 31.250 FPS (1536 SPF)
Bit depth : 16 bits
Compression mode : Lossy
Stream size : 127 MiB (4%)
Title : MVO_[HDRezka Studio]
Language : Russian
Service kind : Complete Main
Default : Yes
Forced : No

Audio #2
ID : 3
Format : AC-3
Format/Info : Audio Coding 3
Commercial name : Dolby Digital
Codec ID : A_AC3
Duration : 1 h 32 min
Bit rate mode : Constant
Bit rate : 448 kb/s
Channel(s) : 6 channels
Channel layout : L R C LFE Ls Rs
Sampling rate : 48.0 kHz
Frame rate : 31.250 FPS (1536 SPF)
Bit depth : 16 bits
Compression mode : Lossy
Stream size : 297 MiB (10%)
Title : AVO_[BadBajo]
Language : Russian
Service kind : Complete Main
Default : No
Forced : No

Audio #3
ID : 4
Format : AC-3
Format/Info : Audio Coding 3
Commercial name : Dolby Digital
Codec ID : A_AC3
Duration : 1 h 32 min
Bit rate mode : Constant
Bit rate : 448 kb/s
Channel(s) : 6 channels
Channel layout : L R C LFE Ls Rs
Sampling rate : 48.0 kHz
Frame rate : 31.250 FPS (1536 SPF)
Bit depth : 16 bits
Compression mode : Lossy
Stream size : 297 MiB (10%)
Title : ENG
Language : English
Service kind : Complete Main
Default : No
Forced : No

Text
ID : 5
Format : UTF-8
Codec ID : S_TEXT/UTF8
Codec ID/Info : UTF-8 Plain Text
Duration : 1 h 26 min
Bit rate : 49 b/s
Count of elements : 1162
Stream size : 31.4 KiB (0%)
Language : English
Default : No
Forced : No

Menu
00:00:00.000 : :Chapter 01
00:11:33.151 : :Chapter 02
00:24:00.564 : :Chapter 03
00:35:38.136 : :Chapter 04
00:49:49.987 : :Chapter 05
01:04:29.991 : :Chapter 06
01:17:18.717 : :Chapter 07
01:24:35.279 : :Chapter 08

pb.wtf



Скачать Железное небо 2: Грядущая раса через торрент http://b.radikal.ru/b07/1905/a9/d3235e6ab800.jpg Скачать фильм Железное небо 2: Грядущая раса через торрент бесплантно в хорошем качестве Описание: Спустя 20 лет после событий первого фильма остатки человечества вынуждены переселиться на ту самую базу, основанную в 1945 году ... 9.9 10 14
Торрент: Зарегистрирован [2019-05-19 06:51] · скачан: 543 раз
Статус: √ проверено
Размер: 2.84 GB
Как cкачать? Как скачать Железное небо 2: Грядущая раса через торрент | qTorrent

% Раздел Тема Автор DL S | L
Фильмы [HD 720p, 1080p] (Хороший звук DUB, MVO) [ 7.14 GB ] Железное небо 2: Грядущая раса / Iron Sky: The Coming Race [2019 BDRip 1080p] [MVO] killermax2013 Скачать
26 | 0
Фильмы с авторской озвучкой [ 1.98 GB ] Железное небо 2: Грядущая раса / Iron Sky: The Coming Race [2019 BDRip-AVC] AVO [А. Важенин ] - ExKinoRay Enigma2010 Скачать
61 | 2
# Релизы по Парсеру [Игры, Сериалы и Фильмы и другое...] [ 7.96 GB ] Железное небо 2: Грядущая раса / Iron Sky: The Coming Race [2019 BDRip 1080p] DVO [@MUZOBOZ@]; AVO [А. Важенин ] -Lexx- Скачать
4 | 0
Фильмы с авторской озвучкой [ 1.37 GB ] Железное небо 2: Грядущая раса / Iron Sky: The Coming Race [2019 WEB-DLRip] AVO [А. Важенин ] - ExKinoRay Enigma2010 Скачать
337 | 9


>> Регистрируемся здесь <<






Отзывы и комментарии о схеме читаем и пишем здесь: ---> Отзывы и комментарии о схеме

Новые благодарочки в телеграм довольных пользователей:
скриншот   скриншот   скриншот   скриншот   скриншот
    Дорогой пользователь! Огромная просьба, поблагодарите релизера, оцените раздачу и оставьте свои комментарий, если Вы скачали Железное небо 2: Грядущая раса через торрент бесплатно! Внесите свою лепту в развитие PiratBit!
    Комментировать посты могут только пользователи прошедшие не сложную регистрацию
    Показать сообщения:    

    Железное небо 2: Грядущая раса через торрент
    Скачать бесплатно Железное небо 2: Грядущая раса
    Железное небо 2: Грядущая раса скачать торрент
    Железное небо 2: Грядущая раса смотреть онлайн
    Cкачать фильм Железное небо 2: Грядущая раса бесплатно
    Железное небо 2: Грядущая раса скачать торрент в хорошем качестве
    Железное небо 2: Грядущая раса смотреть онлайн бесплатно в хорошем качестве


    Вы не можете начинать темы
    Вы не можете отвечать на сообщения
    Вы не можете редактировать свои сообщения
    Вы не можете удалять свои сообщения
    Вы не можете голосовать в опросах
    Вы не можете прикреплять файлы к сообщениям
    Вы можете скачивать файлы