Ссылка на приватное зеркало всего за 1$. Внимание количество ограничено!!!

OK

1+1

iTunes

мы

OK

1

WEB-DLRip

Джокер

Пифагор

Ведьмак / The Witcher сериал

Лицензия

ПШазам

ОК

Оно 2

iTunes

30
pack

Вам бонус

ВАЖНО

!!Акция!!

Alien_RageХит недели

RePack

Resident Evil 21

ИГРА 18+

pack

RePack

jed

RePack

fifa19

RePack

Assassins Creed: Odyssey

RePack

NEED FOR SPEED™ PAYBACK

4 сезон

9 сезон

Бесстыжие 9 сезон

Все сериалы

все сериалы на PB.wtf

RePack

FAR CRY 5
  

Насильственное разделение / A Violent Separation (Кевин Гетц, Майкл Гетц) [2019, триллер, криминал, WEB-DL 720p] MVO [@MUZOBOZ@] pb.wtf

Насильственное разделение через торрент pb.wtf

Размер: 4.14 GB | Добавлен: 8 мес. назад | Торрент скачан:19 раз
Скачать  

19-05-2019 07:12 Насильственное разделение Скачать торрент  

Насильственное разделение / A Violent Separation Год выпуска: 2019
Страна: США
Жанр: триллер, криминал
Продолжительность: 01:47:42
Перевод: Любительский (многоголосый) | @MUZOBOZ@
Субтитры: отсутствуют

Режиссер: Кевин Гетц, Майкл Гетц

rating

В ролях:

Брентон Туэйтс, Бен Робсон, Алисия Дебнем-Кери, Клер Холт, Тед Левайн, Франческа Иствуд, Джералд МакРэйни, Майкл Маларки, Иззи Гасперч, Питер Майкл Гец

Описание:

Действие фильма разворачивается в маленьком тихом городе посреди равнин вокруг молодого помощника шерифа Нормана Янга, который покрывает своего брата-убийцу, Рея. Но все меняет внезапно вспыхнувший роман между Норманом и младшей сестрой убитого, Фрэнсис. Когда расследование приближается к правде, героям приходится выбирать между совестью и семейным долгом.

Качество: WEB-DL 720p
Формат: MKV

Видео: h.264,5 121 Кбит/с, 1280x690
Аудио#1: Русский, (AC3, 2 ch, 384 Кбит/с)
скриншот  скриншот  скриншот  

Общее
Уникальный идентификатор : 192592020148141621060282533967229819965 (0x90E3DFB5A374D578AD3E89C284471C3D)
Полное имя : D:\A.Violent.Separation.2O19.P.WEB-DL.72Op.mkv
Формат : Matroska
Версия формата : Version 2
Размер файла : 4,14 Гбайт
Продолжительность : 1 ч. 47 м.
Режим общего битрейта : Переменный
Общий поток : 5507 Кбит/сек
Дата кодирования : UTC 2019-05-18 03:19:15
Программа кодирования : mkvmerge v8.3.0 ('Over the Horizon') 64bit
Библиотека кодирования : libebml v1.3.1 + libmatroska v1.4.2

Видео
Идентификатор : 1
Формат : AVC
Формат/Информация : Advanced Video Codec
Профиль формата : High@L4.1
Параметр CABAC формата : Да
Параметр RefFrames формата : 4 кадра
Идентификатор кодека : V_MPEG4/ISO/AVC
Продолжительность : 1 ч. 47 м.
Вид битрейта : Переменный
Битрейт : 5121 Кбит/сек
Максимальный битрейт : 6000 Кбит/сек
Ширина : 1280 пикселей
Высота : 690 пикселей
Соотношение сторон : 1,85:1
Режим частоты кадров : Постоянный
Частота кадров : 23,976 (24000/1001) кадра/сек
Стандарт вещания : Component
Цветовое пространство : YUV
Субдискретизация насыщенности : 4:2:0
Битовая глубина : 8 бит
Тип развёртки : Прогрессивная
Бит/(Пиксели*Кадры) : 0.237
Размер потока : 3,77 Гбайт (91%)
Default : Да
Forced : Нет
Цветовой диапазон : Limited
Основные цвета : BT.709
Характеристики трансфера : BT.709
Коэффициенты матрицы : BT.709

Аудио
Идентификатор : 2
Формат : AC-3
Формат/Информация : Audio Coding 3
Расширение режима : CM (complete main)
Параметр Endianness формата : Big
Идентификатор кодека : A_AC3
Продолжительность : 1 ч. 47 м.
Вид битрейта : Постоянный
Битрейт : 384 Кбит/сек
Каналы : 2 канала
Расположение каналов : Front: L R
Частота : 48,0 КГц
Частота кадров : 31,250 кадров/сек (1536 spf)
Метод сжатия : С потерями
Размер потока : 296 Мбайт (7%)
Default : Да
Forced : Нет

pb.wtf



Скачать Насильственное разделение через торрент https://c.radikal.ru/c25/1905/64/a89b2aa3e6bc.jpg Скачать фильм Насильственное разделение через торрент бесплантно в хорошем качестве Описание: Действие фильма разворачивается в маленьком тихом городе посреди равнин вокруг молодого помощника шерифа Нормана Янга, который ... 10 10 3
Торрент: Зарегистрирован [2019-05-19 07:12] · скачан: 19 раз
Статус: T временная
Размер: 4.14 GB
Как cкачать? Как скачать Насильственное разделение через торрент | qTorrent

% Раздел Тема Автор DL S | L
T Фильмы (мультфильмы) cо спонсором показа (Новинки AVI/MKV) [ 4.74 GB ] Насильственное разделение / A Violent Separation [2019 WEB-DL 1080p] MVO [@MUZOBOZ@] bober100 Скачать
1 | 0
T Фильмы (мультфильмы) cо спонсором показа (Новинки AVI/MKV) [ 1.37 GB ] Насильственное разделение / A Violent Separation [2019 WEB-DLRip] MVO [@MUZOBOZ@] bober100 Скачать
1 | 0

28-11-2019 20:33  

Отключить всю рекламу на сайте


    Дорогой пользователь! Огромная просьба, поблагодарите релизера, оцените раздачу и оставьте свои комментарий, если Вы скачали Насильственное разделение через торрент бесплатно! Внесите свою лепту в развитие PiratBit!
    Комментировать посты могут только пользователи прошедшие не сложную регистрацию
    Показать сообщения:    

    Насильственное разделение через торрент
    Скачать бесплатно Насильственное разделение
    Насильственное разделение скачать торрент
    Насильственное разделение смотреть онлайн
    Cкачать фильм Насильственное разделение бесплатно
    Насильственное разделение скачать торрент в хорошем качестве
    Насильственное разделение смотреть онлайн бесплатно в хорошем качестве


    Вы не можете начинать темы
    Вы не можете отвечать на сообщения
    Вы не можете редактировать свои сообщения
    Вы не можете удалять свои сообщения
    Вы не можете голосовать в опросах
    Вы не можете прикреплять файлы к сообщениям
    Вы можете скачивать файлы