Ссылка на приватное зеркало всего за 1$. Внимание количество ограничено!!!

OK

1+1

iTunes

мы

OK

1

WEB-DLRip

Джокер

Пифагор

Ведьмак / The Witcher сериал

Лицензия

ПШазам

ОК

Оно 2

iTunes

30
pack

Вам бонус

ВАЖНО

!!Акция!!

Alien_RageХит недели

RePack

Resident Evil 21

ИГРА 18+

pack

RePack

jed

!!Акция!!

Alien_Rage

RePack

fifa19

RePack

Assassins Creed: Odyssey

RePack

NEED FOR SPEED™ PAYBACK

4 сезон

9 сезон

Бесстыжие 9 сезон

Все сериалы

все сериалы на PB.wtf

RePack

FAR CRY 5
  

Семейство / Familiye (Седат Киртан, Кубилай Сарикая) [2017, драма, BDRip 720p] MVO ["Синема УС"] pb.wtf

Семейство через торрент pb.wtf

Размер: 4.34 GB | Добавлен: 7 мес. назад | Торрент скачан:2 раза
Скачать  

20-05-2019 08:15 Семейство Скачать торрент  

Семейство / FamiliyeГод выпуска: 2017
Страна: Германия
Жанр: драма
Продолжительность: 01:39:02
Перевод: Любительский (многоголосый) | "Синема УС"
Субтитры: отсутствуют

Режиссер: Седат Киртан, Кубилай Сарикая

rating

В ролях: Арнел Таки, Виолетта Шуравлов, Кубилай Сарикая, Мухаммед Киртан, Михаэль Ханеман, Хуберт Бурчек, Ульрих Фастнак, Марио Лутц, Кристофер Питерс, Джулия Филиппи

Описание: История про бывшего заключенного, который после освобождения из тюрьмы должен заботиться о двух своих младших братьях. У одного из них зависимость от азартных игр, у другого синдром Дауна.

Качество: BDRip 720p
Формат: MKV

Видео: h.264,5 704 Кбит/с, 1280x540
Аудио#1: Русский (AC3, 2 ch, 448 Кбит/с)
скриншот  скриншот  скриншот  

Общее
Уникальный идентификатор : 200186741503930355270594941644739038567 (0x969A9061DB47B84989E3D2E25219CD67)
Полное имя : D:\Familiye.2O17.P.BDRip.72Op.mkv
Формат : Matroska
Версия формата : Version 2
Размер файла : 4,34 Гбайт
Продолжительность : 1 ч. 39 м.
Режим общего битрейта : Переменный
Общий поток : 6277 Кбит/сек
Дата кодирования : UTC 2019-05-19 17:18:53
Программа кодирования : mkvmerge v8.3.0 ('Over the Horizon') 64bit
Библиотека кодирования : libebml v1.3.1 + libmatroska v1.4.2
IsTruncated : Yes

Видео
Идентификатор : 1
Формат : AVC
Формат/Информация : Advanced Video Codec
Профиль формата : High@L4.1
Параметр CABAC формата : Да
Параметр RefFrames формата : 4 кадра
Идентификатор кодека : V_MPEG4/ISO/AVC
Продолжительность : 1 ч. 39 м.
Вид битрейта : Переменный
Битрейт : 5704 Кбит/сек
Максимальный битрейт : 7500 Кбит/сек
Ширина : 1280 пикселей
Высота : 540 пикселей
Соотношение сторон : 2,40:1
Режим частоты кадров : Постоянный
Частота кадров : 23,976 (24000/1001) кадра/сек
Стандарт вещания : Component
Цветовое пространство : YUV
Субдискретизация насыщенности : 4:2:0
Битовая глубина : 8 бит
Тип развёртки : Прогрессивная
Бит/(Пиксели*Кадры) : 0.344
Размер потока : 3,95 Гбайт (91%)
Default : Да
Forced : Нет
Цветовой диапазон : Limited
Основные цвета : BT.709
Характеристики трансфера : BT.709
Коэффициенты матрицы : BT.709

Аудио
Идентификатор : 2
Формат : AC-3
Формат/Информация : Audio Coding 3
Расширение режима : CM (complete main)
Параметр Endianness формата : Big
Идентификатор кодека : A_AC3
Продолжительность : 1 ч. 39 м.
Вид битрейта : Постоянный
Битрейт : 448 Кбит/сек
Каналы : 2 канала
Расположение каналов : Front: L R
Частота : 48,0 КГц
Частота кадров : 31,250 кадров/сек (1536 spf)
Метод сжатия : С потерями
Размер потока : 317 Мбайт (7%)
Default : Да
Forced : Нет

pb.wtf



Скачать Семейство через торрент https://c.radikal.ru/c18/1905/50/32f8d74a0eb8.jpg Скачать фильм Семейство через торрент бесплантно в хорошем качестве Описание: История про бывшего заключенного, который после освобождения из тюрьмы должен заботиться о двух своих младших братьях. У одного ... 10 10 2
Торрент: Зарегистрирован [2019-05-20 08:15] · скачан: 2 раз
Статус: T временная
Размер: 4.34 GB
Как cкачать? Как скачать Семейство через торрент | qTorrent

% Раздел Тема Автор DL S | L
T Фильмы (мультфильмы) cо спонсором показа (Новинки AVI/MKV) [ 1.37 GB ] Семейство / Familiye [2017 HDRip] MVO ["Синема УС"] bober100 Скачать
1 | 0

28-11-2019 20:33  

Отключить всю рекламу на сайте

    Дорогой пользователь! Огромная просьба, поблагодарите релизера, оцените раздачу и оставьте свои комментарий, если Вы скачали Семейство через торрент бесплатно! Внесите свою лепту в развитие PiratBit!
    Комментировать посты могут только пользователи прошедшие не сложную регистрацию
    Показать сообщения:    

    Семейство через торрент
    Скачать бесплатно Семейство
    Семейство скачать торрент
    Семейство смотреть онлайн
    Cкачать фильм Семейство бесплатно
    Семейство скачать торрент в хорошем качестве
    Семейство смотреть онлайн бесплатно в хорошем качестве


    Вы не можете начинать темы
    Вы не можете отвечать на сообщения
    Вы не можете редактировать свои сообщения
    Вы не можете удалять свои сообщения
    Вы не можете голосовать в опросах
    Вы не можете прикреплять файлы к сообщениям
    Вы можете скачивать файлы