Marvel's Avengers Deluxe Edition (супер цена) 159р. Внимание количество ограничено!!!

2 сезон

iTunes

iTunes

1

iTunes

iTunes

iTunes

WEBRip

iTunes

30
pack

Новость дня

ВАЖНО

!!Акция!!

Alien_RageХит недели

RePack

Horizon Zero Dawn

ИГРА 18+

pack

RePack

jed

!!Акция!!

Alien_Rage

RePack

fifa19

RePack

Assassins Creed: Odyssey

RePack

NEED FOR SPEED™ PAYBACK

4 сезон

9 сезон

Бесстыжие 9 сезон

Все сериалы

все сериалы на PB.wtf

RePack

FAR CRY 5
  

Взлом / Life Hack (Слоун Коуплэнд) [2017, комедия, WEB-DL 720p] MVO ["Синема УС"] pb.wtf

Взлом через торрент pb.wtf

Размер: 3.48 GB | Добавлен: 1 год 4 мес. назад | Торрент скачан:106 раз
Скачать  

20-05-2019 08:29 Взлом Скачать торрент  

Взлом / Life Hack Год выпуска: 2017
Страна: США
Жанр: комедия
Продолжительность: 01:25:50
Перевод: Любительский (многоголосый) | "Синема УС"
Субтитры: отсутствуют

Режиссер: Слоун Коуплэнд

rating

В ролях: Дерек Уилсон, Джессика Пирвиченти, Шон Клайар, Девин Рэтрей, Майкл Гис, Кристин Картелл, Дилан Пинтер, Даг Роланд, Ребекка Боутон, Джонатан Руми

Описание: Взлом — невероятно своевременная коллективная комедия о цифровой конфиденциальности... или её отсутствие. Юмористическая поучительная история о киберугрозах в цифровую эпоху. Прикрой свою веб-камеру.

Качество: WEB-DL 720p
Формат: MKV

Видео: h.264,5 421 Кбит/с, 1280x540
Аудио: Русский, (AC3, 2 ch, 384 Кбит/с)
скриншот  скриншот  скриншот  

Общее
Уникальный идентификатор : 248105553320367453692838893901978710537 (0xBAA764361F656B708A3128BCA21EB209)
Полное имя : D:\Life.Hack.2O17.P.WEB-DL.72Op.mkv
Формат : Matroska
Версия формата : Version 2
Размер файла : 3,48 Гбайт
Продолжительность : 1 ч. 25 м.
Режим общего битрейта : Переменный
Общий поток : 5807 Кбит/сек
Дата кодирования : UTC 2019-05-19 17:15:25
Программа кодирования : mkvmerge v8.3.0 ('Over the Horizon') 64bit
Библиотека кодирования : libebml v1.3.1 + libmatroska v1.4.2

Видео
Идентификатор : 1
Формат : AVC
Формат/Информация : Advanced Video Codec
Профиль формата : High@L4.1
Параметр CABAC формата : Да
Параметр RefFrames формата : 4 кадра
Идентификатор кодека : V_MPEG4/ISO/AVC
Продолжительность : 1 ч. 25 м.
Вид битрейта : Переменный
Битрейт : 5421 Кбит/сек
Максимальный битрейт : 6000 Кбит/сек
Ширина : 1280 пикселей
Высота : 540 пикселей
Соотношение сторон : 2,40:1
Режим частоты кадров : Постоянный
Частота кадров : 23,976 (24000/1001) кадра/сек
Стандарт вещания : Component
Цветовое пространство : YUV
Субдискретизация насыщенности : 4:2:0
Битовая глубина : 8 бит
Тип развёртки : Прогрессивная
Бит/(Пиксели*Кадры) : 0.320
Размер потока : 3,18 Гбайт (91%)
Default : Да
Forced : Нет
Цветовой диапазон : Limited
Основные цвета : BT.709
Характеристики трансфера : BT.709
Коэффициенты матрицы : BT.709

Аудио
Идентификатор : 2
Формат : AC-3
Формат/Информация : Audio Coding 3
Расширение режима : CM (complete main)
Параметр Endianness формата : Big
Идентификатор кодека : A_AC3
Продолжительность : 1 ч. 25 м.
Вид битрейта : Постоянный
Битрейт : 384 Кбит/сек
Каналы : 2 канала
Расположение каналов : Front: L R
Частота : 48,0 КГц
Частота кадров : 31,250 кадров/сек (1536 spf)
Метод сжатия : С потерями
Размер потока : 236 Мбайт (7%)
Default : Да
Forced : Нет

pb.wtf



Скачать Взлом через торрент https://b.radikal.ru/b08/1905/b7/22219f6ec8ab.jpg Скачать фильм Взлом через торрент бесплантно в хорошем качестве Описание: Взлом — невероятно своевременная коллективная комедия о цифровой конфиденциальности... или её отсутствие. Юмористическая ... 10 10 4
Торрент: Зарегистрирован [2019-05-20 08:29] · скачан: 106 раз
Статус: T временная
Размер: 3.48 GB
Как cкачать? Как скачать Взлом через торрент | qTorrent

% Раздел Тема Автор DL S | L
T Фильмы (мультфильмы) cо спонсором показа (Новинки AVI/MKV) [ 1.37 GB ] Взлом / Life Hack [2017 WEB-DLRip] MVO ["Синема УС"] bober100 Скачать
1 | 0

28-11-2019 20:33  

Отключить всю рекламу на сайте

20-05-2019 18:50 Взлом Скачать торрент  

che? kak?pb.wtf



    Дорогой пользователь! Огромная просьба, поблагодарите релизера, оцените раздачу и оставьте свои комментарий, если Вы скачали Взлом через торрент бесплатно! Внесите свою лепту в развитие PiratBit!
    Комментировать посты могут только пользователи прошедшие не сложную регистрацию
    Показать сообщения:    

    Взлом через торрент
    Скачать бесплатно Взлом
    Взлом скачать торрент
    Взлом смотреть онлайн
    Cкачать фильм Взлом бесплатно
    Взлом скачать торрент в хорошем качестве
    Взлом смотреть онлайн бесплатно в хорошем качестве


    Вы не можете начинать темы
    Вы не можете отвечать на сообщения
    Вы не можете редактировать свои сообщения
    Вы не можете удалять свои сообщения
    Вы не можете голосовать в опросах
    Вы не можете прикреплять файлы к сообщениям
    Вы можете скачивать файлы