Ссылка на приватное зеркало всего за 1$. Внимание количество ограничено!!!

OK

1+1

iTunes

мы

OK

1

WEB-DLRip

Джокер

Пифагор

Ведьмак / The Witcher сериал

Лицензия

ПШазам

ОК

Оно 2

iTunes

30
pack

Вам бонус

ВАЖНО

!!Акция!!

Alien_RageХит недели

RePack

Resident Evil 21

ИГРА 18+

pack

RePack

jed

!!Акция!!

Alien_Rage

RePack

fifa19

RePack

Assassins Creed: Odyssey

RePack

NEED FOR SPEED™ PAYBACK

4 сезон

9 сезон

Бесстыжие 9 сезон

Все сериалы

все сериалы на PB.wtf

RePack

FAR CRY 5
  

Все создания земные / All Creatures Here Below (Коллин Шиффли) [2018, драма, WEB-DL 1080p] MVO [@MUZOBOZ@] pb.wtf

Все создания земные через торрент pb.wtf

Размер: 4.17 GB | Добавлен: 7 мес. назад | Торрент скачан:19 раз
Скачать  

20-05-2019 08:54 Все создания земные Скачать торрент  

Все создания земные / All Creatures Here Below Год выпуска: 2018
Страна: США
Жанр: драма
Продолжительность: 01:32:05
Перевод: Любительский (многоголосый) | @MUZOBOZ@
Субтитры: английские

Режиссер: Коллин Шиффли

rating

В ролях:

Карен Гиллан, Дженнифер Моррисон, Давид Дастмалчян, Дэвид Кокнер, Ричард Кебрал, Джон До, Виктор Рэйдер-Векслер, Джонни Парнелл, С.Дж. Джонсон, Кайл Келли

Описание:

Дженсан и Руби живут на окраине Лос-Анджелеса в условиях крайней нищеты. Однажды ночью они решают совершить роковой поступок и наконец заполучить то, что им самим было совершенно недоступно. Это приведёт к ужасающей череде событий. Совершённое ими преступление вынуждает их скрываться от полиции. В поисках убежища они оказываются в своём родном городе Канзас Сити, в месте, наполненном тёмными тайнами, преследующими их и по сей день.

Качество: WEB-DL 1080p
Формат: MKV

Видео: h.264, 6 097 Кбит/с, 1920x804
Аудио: Русский, (AC3, 2 ch, 384 Кбит/с)
скриншот  скриншот  скриншот  

Общее
Уникальный идентификатор : 187363512506532786636076413773765482764 (0x8CF4E6614CF8A6F1A8B15C58A8ED190C)
Полное имя : D:\All.Creatures.Here.Below.2O18.P.WEB-DL.1O8Op.mkv
Формат : Matroska
Версия формата : Version 2
Размер файла : 4,17 Гбайт
Продолжительность : 1 ч. 32 м.
Режим общего битрейта : Переменный
Общий поток : 6482 Кбит/сек
Дата кодирования : UTC 2019-05-18 03:15:47
Программа кодирования : mkvmerge v8.3.0 ('Over the Horizon') 64bit
Библиотека кодирования : libebml v1.3.1 + libmatroska v1.4.2

Видео
Идентификатор : 1
Формат : AVC
Формат/Информация : Advanced Video Codec
Профиль формата : High@L4.1
Параметр CABAC формата : Да
Параметр RefFrames формата : 4 кадра
Идентификатор кодека : V_MPEG4/ISO/AVC
Продолжительность : 1 ч. 32 м.
Вид битрейта : Переменный
Битрейт : 6097 Кбит/сек
Максимальный битрейт : 6900 Кбит/сек
Ширина : 1920 пикселей
Высота : 804 пикселя
Соотношение сторон : 2,40:1
Режим частоты кадров : Постоянный
Частота кадров : 23,976 (24000/1001) кадра/сек
Стандарт вещания : Component
Цветовое пространство : YUV
Субдискретизация насыщенности : 4:2:0
Битовая глубина : 8 бит
Тип развёртки : Прогрессивная
Бит/(Пиксели*Кадры) : 0.161
Размер потока : 3,84 Гбайт (92%)
Default : Да
Forced : Нет
Цветовой диапазон : Limited
Основные цвета : BT.709
Характеристики трансфера : BT.709
Коэффициенты матрицы : BT.709

Аудио
Идентификатор : 2
Формат : AC-3
Формат/Информация : Audio Coding 3
Расширение режима : CM (complete main)
Параметр Endianness формата : Big
Идентификатор кодека : A_AC3
Продолжительность : 1 ч. 32 м.
Вид битрейта : Постоянный
Битрейт : 384 Кбит/сек
Каналы : 2 канала
Расположение каналов : Front: L R
Частота : 48,0 КГц
Частота кадров : 31,250 кадров/сек (1536 spf)
Метод сжатия : С потерями
Размер потока : 253 Мбайт (6%)
Default : Да
Forced : Нет

pb.wtf



Скачать Все создания земные через торрент https://b.radikal.ru/b15/1905/e5/83a5894818f9.jpg Скачать фильм Все создания земные через торрент бесплантно в хорошем качестве Описание: Дженсан и Руби живут на окраине Лос-Анджелеса в условиях крайней нищеты. Однажды ночью они решают совершить роковой поступок и ... 10 10 2
Торрент: Зарегистрирован [2019-05-20 08:54] · скачан: 19 раз
Статус: T временная
Размер: 4.17 GB
Как cкачать? Как скачать Все создания земные через торрент | qTorrent

% Раздел Тема Автор DL S | L
T Фильмы (мультфильмы) cо спонсором показа (Новинки AVI/MKV) [ 3.7 GB ] Все создания земные / All Creatures Here Below [2018 WEB-DL 720p] MVO [@MUZOBOZ@] bober100 Скачать
1 | 0
T Фильмы (мультфильмы) cо спонсором показа (Новинки AVI/MKV) [ 1.37 GB ] Все создания земные / All Creatures Here Below [2018 WEB-DLRip] MVO [@MUZOBOZ@] bober100 Скачать
1 | 0

28-11-2019 20:33  

Отключить всю рекламу на сайте

    Дорогой пользователь! Огромная просьба, поблагодарите релизера, оцените раздачу и оставьте свои комментарий, если Вы скачали Все создания земные через торрент бесплатно! Внесите свою лепту в развитие PiratBit!
    Комментировать посты могут только пользователи прошедшие не сложную регистрацию
    Показать сообщения:    

    Все создания земные через торрент
    Скачать бесплатно Все создания земные
    Все создания земные скачать торрент
    Все создания земные смотреть онлайн
    Cкачать фильм Все создания земные бесплатно
    Все создания земные скачать торрент в хорошем качестве
    Все создания земные смотреть онлайн бесплатно в хорошем качестве


    Вы не можете начинать темы
    Вы не можете отвечать на сообщения
    Вы не можете редактировать свои сообщения
    Вы не можете удалять свои сообщения
    Вы не можете голосовать в опросах
    Вы не можете прикреплять файлы к сообщениям
    Вы можете скачивать файлы