Ссылка на приватное зеркало всего за 1$. Внимание количество ограничено!!!

OK

1+1

iTunes

мы

OK

1

WEB-DLRip

Джокер

Пифагор

Ведьмак / The Witcher сериал

iTunes

ПШазам

ОК

Оно 2

iTunes

30
pack

Вам бонус

ВАЖНО

!!Акция!!

Alien_RageХит недели

RePack

Resident Evil 21

ИГРА 18+

pack

RePack

jed

RePack

fifa19

RePack

Assassins Creed: Odyssey

RePack

NEED FOR SPEED™ PAYBACK

4 сезон

9 сезон

Бесстыжие 9 сезон

Все сериалы

все сериалы на PB.wtf

RePack

FAR CRY 5
  

Бесконечная история / Unbounded chapter / Wu Jie: First Chapter (Юань Чжан) [2018, Фэнтези, WEBRip 720p] MVO [КОЛОБОК] pb.wtf

Бесконечная история через торрент pb.wtf

Размер: 2.69 GB | Добавлен: 8 мес. назад | Торрент скачан:26 раз
Скачать  

20-05-2019 09:42 Бесконечная история Скачать торрент  

Бесконечная история / Unbounded chapter / Wu Jie: First ChapterГод выпуска: 2018
Страна: Китай
Жанр: Фэнтези
Продолжительность: 01:08:10
Перевод: Любительский (многоголосый) | КОЛОБОК
Субтитры: отсутствуют

Режиссер: Юань Чжан



В ролях: Чжун Мин, Сюй Хуанли, Ван Юань, Ли Дун, Ван Мэйхун, Тань Цзяцзя, Чжао Ина

Описание: Молодой, и изначально обычный парень, становится жертвой преследования загадочной группы людей. Возникшая из ниоткуда маленькая девочка Сара отводит его в мистическое место. Там он узнает о своих сверхспособностях и существовании людей другой формации, но никак не может вспомнить, кто он такой. И именно за разгадкой этой тайны он отправляется в опасное путешествие.

Качество: WEBRip 720p
Формат: MKV

Видео: h.264, 5 256 Кбит/с, 1280x544
Аудио#1: Русский, (AC3, 2 ch, 384 Кбит/с)
скриншот  скриншот  скриншот  

Общее
Уникальный идентификатор : 178781153430360264914661893352948379651 (0x867FFF6881263A9984D82212F5B63003)
Полное имя : D:\unbounded chapter.2O18.Pk.WEBRip.72Op.mkv
Формат : Matroska
Версия формата : Version 2
Размер файла : 2,69 Гбайт
Продолжительность : 1 ч. 8 м.
Режим общего битрейта : Переменный
Общий поток : 5642 Кбит/сек
Дата кодирования : UTC 2019-05-19 17:08:59
Программа кодирования : mkvmerge v8.3.0 ('Over the Horizon') 64bit
Библиотека кодирования : libebml v1.3.1 + libmatroska v1.4.2

Видео
Идентификатор : 1
Формат : AVC
Формат/Информация : Advanced Video Codec
Профиль формата : High@L4.1
Параметр CABAC формата : Да
Параметр RefFrames формата : 4 кадра
Идентификатор кодека : V_MPEG4/ISO/AVC
Продолжительность : 1 ч. 8 м.
Вид битрейта : Переменный
Битрейт : 5256 Кбит/сек
Максимальный битрейт : 6000 Кбит/сек
Ширина : 1280 пикселей
Высота : 544 пикселя
Соотношение сторон : 2,35:1
Режим частоты кадров : Постоянный
Частота кадров : 23,976 (24000/1001) кадра/сек
Стандарт вещания : Component
Цветовое пространство : YUV
Субдискретизация насыщенности : 4:2:0
Битовая глубина : 8 бит
Тип развёртки : Прогрессивная
Бит/(Пиксели*Кадры) : 0.308
Размер потока : 2,46 Гбайт (91%)
Default : Да
Forced : Нет
Цветовой диапазон : Limited
Основные цвета : BT.709
Характеристики трансфера : BT.709
Коэффициенты матрицы : BT.709

Аудио
Идентификатор : 2
Формат : AC-3
Формат/Информация : Audio Coding 3
Расширение режима : CM (complete main)
Параметр Endianness формата : Big
Идентификатор кодека : A_AC3
Продолжительность : 1 ч. 8 м.
Вид битрейта : Постоянный
Битрейт : 384 Кбит/сек
Каналы : 2 канала
Расположение каналов : Front: L R
Частота : 48,0 КГц
Частота кадров : 31,250 кадров/сек (1536 spf)
Метод сжатия : С потерями
Размер потока : 188 Мбайт (7%)
Default : Да
Forced : Нет

pb.wtf



Скачать Бесконечная история через торрент https://c.radikal.ru/c15/1905/30/559d8278e218.jpg Скачать фильм Бесконечная история через торрент бесплантно в хорошем качестве Описание: Молодой, и изначально обычный парень, становится жертвой преследования загадочной группы людей. Возникшая из ниоткуда маленькая ... 10 10 2
Торрент: Зарегистрирован [2019-05-20 09:42] · скачан: 26 раз
Статус: T временная
Размер: 2.69 GB
Как cкачать? Как скачать Бесконечная история через торрент | qTorrent

% Раздел Тема Автор DL S | L
T Фильмы (мультфильмы) cо спонсором показа (Новинки AVI/MKV) [ 1.37 GB ] Бесконечная история / Unbounded chapter / Wu Jie: First Chapter [2018 WEBRip] MVO [КОЛОБОК] bober100 Скачать
1 | 0

28-11-2019 20:33  

Отключить всю рекламу на сайте

21-05-2019 17:42 Бесконечная история Скачать торрент  

Я уж думал та самая "бесконечная история"pb.wtf



22-05-2019 21:27 Бесконечная история Скачать торрент  

Тоже подумал, неужели ремейк?pb.wtf



    Дорогой пользователь! Огромная просьба, поблагодарите релизера, оцените раздачу и оставьте свои комментарий, если Вы скачали Бесконечная история через торрент бесплатно! Внесите свою лепту в развитие PiratBit!
    Комментировать посты могут только пользователи прошедшие не сложную регистрацию
    Показать сообщения:    

    Бесконечная история через торрент
    Скачать бесплатно Бесконечная история
    Бесконечная история скачать торрент
    Бесконечная история смотреть онлайн
    Cкачать фильм Бесконечная история бесплатно
    Бесконечная история скачать торрент в хорошем качестве
    Бесконечная история смотреть онлайн бесплатно в хорошем качестве


    Вы не можете начинать темы
    Вы не можете отвечать на сообщения
    Вы не можете редактировать свои сообщения
    Вы не можете удалять свои сообщения
    Вы не можете голосовать в опросах
    Вы не можете прикреплять файлы к сообщениям
    Вы можете скачивать файлы