Ссылка на приватное зеркало нашего сайта всего за 1$. Внимание количество ограничено!!!

2 сезон

iTunes

1 сезон

1

2 сезон

2 сезон

iTunes

1 сезон

RePack

30

Новинка

ВАЖНО

ИГРА 18+

pack

RePack

MK11
pack

Забери бонус

RePack

jed

!!Акция!!

Alien_Rage

RePack

fifa19

RePack

Assassins Creed: Odyssey

RePack

NEED FOR SPEED™ PAYBACK

4 сезон

9 сезон

Бесстыжие 9 сезон

Все сериалы

все сериалы на PB.wtf

RePack

FAR CRY 5
  

Принц и нищий / The Prince and the Pauper (Джордж Скрибнер) [1990, мультфильм, детский, комедия, музыкальный, приключения, семейный, UHD WEB-DL 2160p] [SDR] DUB + MVO +2xAVO pb.wtf

Принц и нищий через торрент pb.wtf

Размер: 9.19 GB | Добавлен: 1 год 6 мес. назад | Торрент скачан:9 раз
Скачать  

20-05-2019 15:46 Принц и нищий Скачать торрент  

Принц и нищий / The Prince and the Pauper

Год выпуска: 1990
Страна: США
Жанр: мультфильм, детский, комедия, музыкальный, приключения, семейный
Продолжительность: 00:25:26
Перевод: Дублированный, профессиональный многоголосый, авторский
Субтитры: Русские (Full), английские (Full, SDH)
Режиссер: Джордж Скрибнер
В ролях:

Уэйн Оллвэйн (Mickey Mouse / Prince, озвучка), Билл Фармер (Goofy / Horace Horsecollar / Weasel #1 / Pluto, озвучка), Артур Бергхардт (Captain Pete, озвучка), Тони Ансельмо (Donald Duck, озвучка), Чарльз Адлер (Weasel #2 / Weasel #3 / Pig Driver / Peasant / Man in Street, озвучка), Фрэнк Уэлкер (Archbishop / Dying King, озвучка), Элвия Оллман (Clarabelle Cow, озвучка), Тим Эйстер (Kid #1, озвучка), Анджело Бруно Кракофф (Kid #2, озвучка), Рой Дотрис (рассказчик, озвучка)
Описание:
Всем известная история принца и нищего, но теперь в исполнении Микки Мауса! Бедный мальчик и принц меняются местами, принц познает как живет бедняк, а оборванец отдувается за принца. Но злой капитан охраны готовится воспользоваться этим и взять Влacть в королевстве в свои руки.
Рейтинг:

MPAA: G - Нет возрастных ограничений
Качество: UHD WEB-DL 2160p | SDR
Формат: MKV
Видео: MPEG-4 AVC, 50.0 Мбит/с, 3600x2160, 23.976 кадр/c
Аудио#1: Russian: 48 kHz/16-bit, AC3, 2.0, 384 kbps|Полное Дублирование, Невафильм|
Аудио#2: Russian: 48 kHz/16-bit, AC3 Surround, 2.0, 384 kbps|Полное Дублирование, Невафильм|
Аудио#3: Russian: 48 kHz/16-bit, AC3 Surround, 2.0, 384 kbps|Многоголосый закадровый, Ajariya-TV|
Аудио#4: Russian: 48 kHz/16-bit, AC3, 2.0, 384 kbps|Одноголосый закадровый, Вартан Дохалов|
Аудио#5: Russian: 48 kHz/16-bit, AC3, 2.0, 384 kbps|Одноголосый закадровый, Андрей Дольский|
Аудио#6: English: 48 kHz/16-bit, AC3, 2.0, 384 kbps
Аудио#7: English: 48 kHz/16-bit, AC3 Surround, 2.0, 384 kbps

General
Unique ID : 228886820650928442209669035618378481384 (0xAC31FF888275F9329C155DE5606C7EE8)
Complete name : D:\Downloads\Movie\Mickey_Mouse_The_Prince_and_the_Pauper_1990_RUS_DUB_MVO_2xAVO_SUB_2160p_WEB-DL_AMAZON_USA_B3stt.mkv
Format : Matroska
Format version : Version 4
File size : 9.19 GiB
Duration : 25 min 26 s
Overall bit rate : 51.7 Mb/s
Movie name : Mickey Mouse The Prince and the Pauper 1990 2160p AMAZON USA WEB-DL B3stt
Encoded date : UTC 2019-05-20 14:42:08
Writing application : mkvmerge v15.0.0 ('Duel with the Devil') 64-bit
Writing library : libebml v1.3.5 + libmatroska v1.4.5

Video
ID : 1
Format : AVC
Format/Info : Advanced Video Codec
Format profile : High@L5.1
Format settings : CABAC / 3 Ref Frames
Format settings, CABAC : Yes
Format settings, Reference fra : 3 frames
Codec ID : V_MPEG4/ISO/AVC
Duration : 25 min 25 s
Bit rate mode : Constant
Bit rate : 50.0 Mb/s
Width : 3 600 pixels
Height : 2 160 pixels
Display aspect ratio : 5:3
Frame rate mode : Constant
Frame rate : 23.976 (23976/1000) FPS
Original frame rate : 23.976 (24000/1001) FPS
Standard : NTSC
Color space : YUV
Chroma subsampling : 4:2:0
Bit depth : 8 bits
Scan type : Progressive
Bits/(Pixel*Frame) : 0.268
Stream size : 8.71 GiB (95%)
Title : Mickey Mouse The Prince and the Pauper 1990 2160p AMAZON USA WEB-DL B3stt
Language : English
Default : Yes
Forced : Yes
Color range : Limited
Color primaries : BT.709
Transfer characteristics : BT.709
Matrix coefficients : BT.709

Audio #1
ID : 2
Format : AC-3
Format/Info : Audio Coding 3
Commercial name : Dolby Digital
Codec ID : A_AC3
Duration : 25 min 26 s
Bit rate mode : Constant
Bit rate : 384 kb/s
Channel(s) : 2 channels
Channel layout : L R
Sampling rate : 48.0 kHz
Frame rate : 31.250 FPS (1536 SPF)
Bit depth : 16 bits
Compression mode : Lossy
Delay relative to video : -200 ms
Stream size : 69.9 MiB (1%)
Title : RUS DUB Невафильм AC3 DD2.0 384 kbps
Language : Russian
Service kind : Complete Main
Default : Yes
Forced : Yes

Audio #2
ID : 3
Format : AC-3
Format/Info : Audio Coding 3
Commercial name : Dolby Digital
Codec ID : A_AC3
Duration : 25 min 26 s
Bit rate mode : Constant
Bit rate : 384 kb/s
Channel(s) : 2 channels
Channel layout : L R
Sampling rate : 48.0 kHz
Frame rate : 31.250 FPS (1536 SPF)
Bit depth : 16 bits
Compression mode : Lossy
Delay relative to video : -200 ms
Stream size : 69.9 MiB (1%)
Title : RUS DUB Невафильм AC3 Surround DD2.0 384 kbps
Language : Russian
Service kind : Complete Main
Default : No
Forced : No

Audio #3
ID : 4
Format : AC-3
Format/Info : Audio Coding 3
Commercial name : Dolby Digital
Codec ID : A_AC3
Duration : 25 min 26 s
Bit rate mode : Constant
Bit rate : 384 kb/s
Channel(s) : 2 channels
Channel layout : L R
Sampling rate : 48.0 kHz
Frame rate : 31.250 FPS (1536 SPF)
Bit depth : 16 bits
Compression mode : Lossy
Delay relative to video : -200 ms
Stream size : 69.9 MiB (1%)
Title : RUS MVO AJARIYA AC3 Surround DD2.0 384 kbps
Language : Russian
Service kind : Complete Main
Default : No
Forced : No

Audio #4
ID : 5
Format : AC-3
Format/Info : Audio Coding 3
Commercial name : Dolby Digital
Codec ID : A_AC3
Duration : 25 min 26 s
Bit rate mode : Constant
Bit rate : 384 kb/s
Channel(s) : 2 channels
Channel layout : L R
Sampling rate : 48.0 kHz
Frame rate : 31.250 FPS (1536 SPF)
Bit depth : 16 bits
Compression mode : Lossy
Delay relative to video : -200 ms
Stream size : 69.9 MiB (1%)
Title : RUS AVO Вартан Дохалов AC3 DD2.0 384 kbps
Language : Russian
Service kind : Complete Main
Default : No
Forced : No

Audio #5
ID : 6
Format : AC-3
Format/Info : Audio Coding 3
Commercial name : Dolby Digital
Codec ID : A_AC3
Duration : 25 min 26 s
Bit rate mode : Constant
Bit rate : 384 kb/s
Channel(s) : 2 channels
Channel layout : L R
Sampling rate : 48.0 kHz
Frame rate : 31.250 FPS (1536 SPF)
Bit depth : 16 bits
Compression mode : Lossy
Delay relative to video : -200 ms
Stream size : 69.9 MiB (1%)
Title : RUS AVO Андрей Дольский AC3 DD2.0 384 kbps
Language : Russian
Service kind : Complete Main
Default : No
Forced : No

Audio #6
ID : 7
Format : AC-3
Format/Info : Audio Coding 3
Commercial name : Dolby Digital
Codec ID : A_AC3
Duration : 25 min 26 s
Bit rate mode : Constant
Bit rate : 384 kb/s
Channel(s) : 2 channels
Channel layout : L R
Sampling rate : 48.0 kHz
Frame rate : 31.250 FPS (1536 SPF)
Bit depth : 16 bits
Compression mode : Lossy
Delay relative to video : -200 ms
Stream size : 69.9 MiB (1%)
Title : ENG AC3 DD2.0 384 kbps
Language : English
Service kind : Complete Main
Default : No
Forced : No

Audio #7
ID : 8
Format : AC-3
Format/Info : Audio Coding 3
Commercial name : Dolby Digital
Codec ID : A_AC3
Duration : 25 min 26 s
Bit rate mode : Constant
Bit rate : 384 kb/s
Channel(s) : 2 channels
Channel layout : L R
Sampling rate : 48.0 kHz
Frame rate : 31.250 FPS (1536 SPF)
Bit depth : 16 bits
Compression mode : Lossy
Delay relative to video : -200 ms
Stream size : 69.9 MiB (1%)
Title : ENG AC3 Surround DD2.0 384 kbps
Language : English
Service kind : Complete Main
Default : No
Forced : No

Text #1
ID : 9
Format : UTF-8
Codec ID : S_TEXT/UTF8
Codec ID/Info : UTF-8 Plain Text
Duration : 23 min 12 s
Bit rate : 88 b/s
Count of elements : 274
Stream size : 15.0 KiB (0%)
Title : RUS Full
Language : Russian
Default : No
Forced : No

Text #2
ID : 10
Format : UTF-8
Codec ID : S_TEXT/UTF8
Codec ID/Info : UTF-8 Plain Text
Duration : 23 min 9 s
Bit rate : 58 b/s
Count of elements : 402
Stream size : 9.88 KiB (0%)
Title : ENG Full
Language : English
Default : No
Forced : No

Text #3
ID : 11
Format : UTF-8
Codec ID : S_TEXT/UTF8
Codec ID/Info : UTF-8 Plain Text
Duration : 23 min 9 s
Bit rate : 60 b/s
Count of elements : 418
Stream size : 10.2 KiB (0%)
Title : ENG SDH
Language : English
Default : No
Forced : No
pb.wtf



Скачать Принц и нищий через торрент https://a.radikal.ru/a03/1905/9d/62750dd2c02d.png Скачать фильм Принц и нищий через торрент бесплантно в хорошем качестве Описание: Всем известная история принца и нищего, но теперь в исполнении Микки Мауса! Бедный мальчик и принц меняются местами, принц ... 10 10 3
Торрент: Зарегистрирован [2019-05-20 15:46] · скачан: 9 раз
Статус: √ проверено
Размер: 9.19 GB
Как cкачать? Как скачать Принц и нищий через торрент | qTorrent

28-11-2019 20:33  

Отключить всю рекламу на сайте

    Дорогой пользователь! Огромная просьба, поблагодарите релизера, оцените раздачу и оставьте свои комментарий, если Вы скачали Принц и нищий через торрент бесплатно! Внесите свою лепту в развитие PiratBit!
    Комментировать посты могут только пользователи прошедшие не сложную регистрацию
    Показать сообщения:    

    Принц и нищий через торрент
    Скачать бесплатно Принц и нищий
    Принц и нищий скачать торрент
    Принц и нищий смотреть онлайн
    Cкачать фильм Принц и нищий бесплатно
    Принц и нищий скачать торрент в хорошем качестве
    Принц и нищий смотреть онлайн бесплатно в хорошем качестве


    Вы не можете начинать темы
    Вы не можете отвечать на сообщения
    Вы не можете редактировать свои сообщения
    Вы не можете удалять свои сообщения
    Вы не можете голосовать в опросах
    Вы не можете прикреплять файлы к сообщениям
    Вы можете скачивать файлы