Anonymous, добрый день, присоединяйтесь к нам в Telegram!, здесь всегда актуальный адрес сайта, оперативная поддержка и многое другое!

>

5.6

iTunes

7.4

iTunes

5.7

MVO

1

7.7

1 сезон

6.8

iTunes

7.3

1 сезон

13

6.7

1 сезон

8.3

RePack

30

ULTIMATE

pack

9.9

Лицензия

ВАЖНО

ИГРА 18+

pack

7.3

RePack

MK11

7.7

RePack

jed

7.8

RePack

fifa19

8.5

RePack

RDR2

RePack

NEED FOR SPEED™ PAYBACK

4 сезон

9 сезон

Бесстыжие 9 сезон

Все сериалы

все сериалы на PB.wtf

RePack

FAR CRY 5

Anonymous, добрый день, мы катастрофически не успеваем собрать деньги на оплату серверов, помогите нам пожалуйста 5,10,15р., для нас важна любая помощь . В качестве благодарности мы отключим Вам всю рекламу на сайте (укажите свой ник в строку Ваше имя)!

×
  
Magnet ссылка

Толя-робот / Серии: 1-8 из 8 (Алексей Нужный) [2019, драма, комедия, WEBRip 720p] pb.wtf

Толя-робот через торрент pb.wtf

Размер: 6.51 GB | Добавлен: 2 года 4 мес. назад | Торрент скачан:337 раз
Смотреть онлайн Толя-робот | Скачать    Ребята, помогите собрать деньги на оплату серверов!!!

20-05-2019 17:43 Толя-робот Скачать торрент  

Толя-робот

Год выпуска: 2019
Производство: ТНТ-PREMIER Studios, Droog Drooga Films
Жанр: драма, комедия
Продолжительность: ~00:48:00 серия
Субтитры: нет

Режиссёр: Алексей Нужный

В ролях: Александр Паль, Евгений Кулик, Маргарита Аброськина, Валентина Мазунина, Азамат Мусагалиев, Александр Никольский, Фёдор Инсаров, Михаил Орлов, Евгений Коряковский, Екатерина Директоренко, Елена Валюшкина, Сергей Стёпин, Юлия Гришаева, Максим Костромыкин, Максим Фадеев, Ольга Серябкина

Описание: Толя — молодой провинциальный парень без рук и ног, который оказывается более сильным, жизнелюбивым и оптимистичным, чем окружающие его люди с руками и ногами. Обретя бионические протезы, он начинает жить на полную катушку: борется за лучшую девушку в своём городе, организует ТСЖ и отстаивает свой дом, включается в жизнь своих близких и увлекает их за собой — к свету и мечте.


Sample

Качество: WEBRip 720p - ExKinoRay
Формат: MKV
Видео кодек: H.264
Аудио кодек: AC3
Видео: MPEG4 AVC Video, H264, 2.35:1, 1280x544, 25 fps, ~2300 kbps, 0.132 bit/pixel
Аудио: AC3, 48.0 kHz, 2/0 (L,R) ch, 192 kbps
Раздача ведётся путём добавления новых серий, при каждом добавлении создаётся новый торрент. Чтобы начать докачку новой серии, пользователям необходимо сделать следующее:

- Остановить скачивание.
- Удалить старый торрент у себя из клиента (старые серии удалять не надо).
- Скачать новый торрент и запустить его у себя в клиенте вместо старого, при этом указать клиенту путь в старую папку куда и должно происходить скачивание новых серий.

Ваш клиент при этом должен произвести хеширование (проверку) старой папки (если не производит сам - помогите ему сделать это), и будет докачивать только те серии которых у вас ещё нет. Старые серии при этом не удаляются, а продолжают раздаваться!
Если вы уже удалили старые серии, то предотвратить повторную закачку старых серий можно, отжав галочку в соответствующих местах при запуске нового торрента. По возможности, желательно не удалять старые серии как можно дольше, чтобы релизер не столько продолжал раздавать старые серии, а смог сконцентрироваться на новых.
General
Unique ID : 203757680983891973341676304280630038837 (0x994A4D4AAAC029448EF082F0485B9135)
Complete name : D:\Tolia.Robot.(2019).WEB-DL.720p.ExKinoRay\Tolia.Robot.e01.(2019).WEB-DL.720p.ExKinoRay.mkv
Format : Matroska
Format version : Version 2
File size : 871 MiB
Duration : 47 min 54 s
Overall bit rate mode : Constant
Overall bit rate : 2 541 kb/s
Encoded date : UTC 2019-05-20 16:34:20
Writing application : mkvmerge v5.8.0 ('No Sleep / Pillow') built on Sep 2 2012 15:37:04
Writing library : libebml v1.2.3 + libmatroska v1.3.0

Video
ID : 1
Format : AVC
Format/Info : Advanced Video Codec
Format profile : High@L4.1
Format settings : CABAC / 4 Ref Frames
Format settings, CABAC : Yes
Format settings, ReFrames : 4 frames
Codec ID : V_MPEG4/ISO/AVC
Duration : 47 min 54 s
Bit rate mode : Constant
Bit rate : 2 298 kb/s
Nominal bit rate : 2 600 kb/s
Width : 1 280 pixels
Height : 544 pixels
Display aspect ratio : 2.35:1
Frame rate mode : Constant
Frame rate : 25.000 FPS
Standard : PAL
Color space : YUV
Chroma subsampling : 4:2:0
Bit depth : 8 bits
Scan type : Progressive
Bits/(Pixel*Frame) : 0.132
Stream size : 787 MiB (90%)
Language : Russian
Default : Yes
Forced : No
Color range : Limited
Color primaries : BT.709
Transfer characteristics : BT.709
Matrix coefficients : BT.709

Audio
ID : 2
Format : AC-3
Format/Info : Audio Coding 3
Codec ID : A_AC3
Duration : 47 min 54 s
Bit rate mode : Constant
Bit rate : 192 kb/s
Channel(s) : 2 channels
Channel positions : Front: L R
Sampling rate : 48.0 kHz
Frame rate : 31.250 FPS (1536 SPF)
Bit depth : 16 bits
Compression mode : Lossy
Stream size : 65.8 MiB (8%)
Language : Russian
Service kind : Complete Main
Default : Yes
Forced : No
скриншот  скриншот  скриншот  
pb.wtf



Скачать Толя-робот через торрент https://i110.fastpic.ru/big/2019/0520/9e/c9978e9f01ee1433fca980aebe2dad9e.jpg Скачать, смотреть онлайн Толя-робот бесплантно в хорошем качестве Описание: Толя — молодой провинциальный парень без рук и ног, который оказывается более сильным, жизнелюбивым и оптимистичным, чем ... 9.6 10 40
Info! Золотая раздача, скачанное не засчитывается.
Торрент: Зарегистрирован [2019-05-30 17:55] · скачан: 337 раз
Статус: √ проверено
Размер: 6.51 GB
Как cкачать? Как скачать Толя-робот через торрент | UTorrent

% Раздел Тема Автор DL S | L
TNT serials [ 4.69 GB ] Толя-робот / Сезон: 1 / Серии: 1-8 из 8 [2019 WEB-DLRip] bober100 Скачать
2 | 0
TNT serials [ 13.18 GB ] Толя-робот / Сезон: 1 / Серии: 1-8 из 8 [2019 WEB-DL 1080p] bober100 Скачать
1 | 0
TNT serials [ 17.11 GB ] Толя-робот / Сезон: 1 / Серии: 1-8 из 8 [2019 HDTV 1080i] bober100 Скачать
1 | 0
TNT serials [ 4.72 GB ] Толя-робот / Сезон: 1 / Серии: 1-8 из 8 [2019 SATRip] bober100 Скачать
1 | 0
TNT serials [ 4.56 GB ] Толя-робот/ Сезон : 1 / Серии: 1-8 из 8 [2019 WEBRip-AVC] Sanekzade1989 Скачать
1 | 0


Последний раз редактировалось: killermax2013 (2019-05-30 17:55), всего редактировалось 5 раз(а)

28-11-2019 20:33  

Отключить всю рекламу на сайте

23-05-2019 13:43 Толя-робот Скачать торрент  

залупидрия очередная ТНТшнаяpb.wtf



24-05-2019 18:38 Толя-робот Скачать торрент  

Топик был перенесен из форума Наши сериалы в форум TNT serials


Enigma2010pb.wtf



    Дорогой пользователь! Огромная просьба, поблагодарите релизера, оцените раздачу и оставьте свои комментарий, если Вы скачали Толя-робот через торрент бесплатно!
    Комментировать посты могут только пользователи прошедшие не сложную регистрацию
    Показать сообщения:    

    Толя-робот через торрент
    Скачать бесплатно Толя-робот
    Толя-робот скачать торрент
    Толя-робот смотреть онлайн
    Cкачать фильм Толя-робот бесплатно
    Толя-робот скачать торрент в хорошем качестве
    Толя-робот смотреть онлайн бесплатно в хорошем качестве


    Вы не можете начинать темы
    Вы не можете отвечать на сообщения
    Вы не можете редактировать свои сообщения
    Вы не можете удалять свои сообщения
    Вы не можете голосовать в опросах
    Вы не можете прикреплять файлы к сообщениям
    Вы можете скачивать файлы