Ссылка на приватное зеркало нашего сайта всего за 1$. Внимание количество ограничено!!!

2 сезон

iTunes

1 сезон

1

iTunes

iTunes

iTunes

1 сезон

RePack

30

ИГРА 18+

pack

ВАЖНО

!!Акция!!

Alien_RageХит недели

RePack

MK11
pack

Забери бонус

RePack

jed

!!Акция!!

Alien_Rage

RePack

fifa19

RePack

Assassins Creed: Odyssey

RePack

NEED FOR SPEED™ PAYBACK

4 сезон

9 сезон

Бесстыжие 9 сезон

Все сериалы

все сериалы на PB.wtf

RePack

FAR CRY 5
  

Консультант / Сезон: 2 / Серии: 1- 10 из 10 (Дмитрий Коробкин) [2019, Детектив, криминал, WEBRip] pb.wtf

Консультант через торрент pb.wtf

Раздают: 2 [ 0 KB/s ]
Размер: 5.45 GB | Добавлен: 1 год 4 мес. назад | Торрент скачан:129 раз
Скачать  

20-05-2019 22:07 Консультант Скачать торрент  

Консультант
Год выпуска: 2019
Страна: Россия
Жанр: Детектив, криминал
Продолжительность: 10 х ~ 00:48:00
Субтитры: Отсутствуют

Режиссер: Дмитрий Коробкин



В ролях: Кирилл Кяро, Максим Дрозд, Иван Рудаков, Игорь Хрипунов, Анастасия Акатова, Анна Носатова, Виктор Цекало, Юрий Архангельский, Марина Волкова, Анна Шкиль, Юля Арутюнова, Филипп Котов, Ксения Золотухина, Владимир Матвеев, Татьяна Яхина, Виталий Шпортько

Описание: На этот раз полюбившиеся зрителям герои выйдут на след серийного убийцы, который охотится за солисткой популярной группы Алиной Репиной и убивает девушек, похожих не неё. Широков и Брагин всё ещё по-разному подходят к раскрытию преступлений: Широков развивает свою теорию о психологическом портрете преступника, но в ходе следствия возникнут ситуации, в которых он засомневается в правильности своего метода, а Брагин по-прежнему действует на профессиональной интуиции матёрого следователя.

Качество: WEBRip
Формат: AVI
Видео кодек: XviD
Аудио кодек: AC3
Видео: XviD build 73, 720x400 (16:9), 25.000 fps, ~ 1380 Kbps
Аудио#1: 48.0 kHz, AC3, 2/0 ch, 192 kbps
скриншот   скриншот   скриншот   скриншот   скриншот   скриншот   скриншот  
скриншот  

General
Complete name : D:\Razdachi\Konsuljtant.S02.2019.WEBRip.GeneralFilm\Konsuljtant.s02.e01.avi
Format : AVI
Format/Info : Audio Video Interleave
File size : 558 MiB
Duration : 49 min 14 s
Overall bit rate : 1 585 kb/s
Writing application : VirtualDubMod 1.5.10.3 | www.virtualdub-fr.org || (build 2550/release)
Writing library : VirtualDubMod build 2550/release

Video
ID : 0
Format : MPEG-4 Visual
Format profile : Advanced Simple@L5
Format settings : BVOP1 / Custom Matrix
Format settings, BVOP : 1
Format settings, QPel : No
Format settings, GMC : No warppoints
Format settings, Matrix : Custom
Codec ID : XVID
Codec ID/Hint : XviD
Duration : 49 min 14 s
Bit rate : 1 383 kb/s
Width : 720 pixels
Height : 400 pixels
Display aspect ratio : 16:9
Frame rate : 25.000 FPS
Color space : YUV
Chroma subsampling : 4:2:0
Bit depth : 8 bits
Scan type : Progressive
Compression mode : Lossy
Bits/(Pixel*Frame) : 0.192
Stream size : 487 MiB (87%)
Writing library : XviD 73

Audio
ID : 1
Format : AC-3
Format/Info : Audio Coding 3
Commercial name : Dolby Digital
Codec ID : 2000
Duration : 49 min 14 s
Bit rate mode : Constant
Bit rate : 192 kb/s
Channel(s) : 2 channels
Channel layout : L R
Sampling rate : 48.0 kHz
Frame rate : 31.250 FPS (1536 SPF)
Bit depth : 16 bits
Compression mode : Lossy
Stream size : 67.6 MiB (12%)
Alignment : Split accross interleaves
Interleave, duration : 40 ms (1.00 video frame)
Interleave, preload duratio : 500 ms
Service kind : Complete Main

Внимание! Раздача ведётся путём добавления новых серий; при каждом добавлении создётся новый торрент. Чтобы начать докачку новой серии, пользователям необходимо сделать следующее:
  • Остановить скачивание,
  • Удалить старый торрент у себя из клиента (старые серии удалять не надо),
  • Скачать новый торрент и запустить его у себя в клиенте вместо старого, при этом указать клиенту путь в старую папку куда и должно происходить скачивание новых серий.
Ваш клиент при этом должен произвести хеширование (проверку) старой папки (если не производит сам - помогите ему сделать это), и будет докачивать только те серии которых у вас ещё нет. Старые серии при этом не удаляются, а продолжают раздаваться!

Eсли вы уже удалили старые серии, то предотвратить повторную закачку старых серий можно, отжав галочку в соответсвующих местах при запуске нового торрента. По возможности, желательно не удалять старые серии как можно дольше чтобы релизёр не столько продолжал раздавать старые серии, а смог сконцентрироваться на новых.
pb.wtf



Скачать Консультант через торрент http://pic1.kartinco.top/images/12/sh43t.jpg Скачать фильм Консультант через торрент бесплантно в хорошем качестве Описание: На этот раз полюбившиеся зрителям герои выйдут на след серийного убийцы, который охотится за солисткой популярной группы Алиной ... 10 10 4
Торрент: Зарегистрирован [2019-05-25 06:15] · скачан: 129 раз
Статус: √ проверено
Размер: 5.45 GB
Как cкачать? Как скачать Консультант через торрент | qTorrent

% Раздел Тема Автор DL S | L
Наши сериалы [ 14.52 GB ] Консультант / Сезон: 2 / Серии: 1-10 из 10 [2019 WEB-DL 720p] bober100 Скачать
1 | 0
Наши сериалы [ 21.32 GB ] Консультант / Сезон: 2 / Серии: 1-10 из 10 [2019 WEB-DL 1080p] bober100 Скачать
1 | 0
Наши сериалы [ 6.59 GB ] Консультант / Сезон: 2 / Серии: 1-10 из 10 [2019 SATRip] bober100 Скачать
1 | 0
Наши сериалы [ 6.21 GB ] Консультант / Сезон: 2 / Серии: 1-10 из 10 [2019 SATRip-AVC] aleksan55 Скачать
2 | 0


Последний раз редактировалось: oleg8 (2019-05-24 05:41), всего редактировалось 1 раз

28-11-2019 20:33  

Отключить всю рекламу на сайте

    Дорогой пользователь! Огромная просьба, поблагодарите релизера, оцените раздачу и оставьте свои комментарий, если Вы скачали Консультант через торрент бесплатно! Внесите свою лепту в развитие PiratBit!
    Комментировать посты могут только пользователи прошедшие не сложную регистрацию
    Показать сообщения:    

    Консультант через торрент
    Скачать бесплатно Консультант
    Консультант скачать торрент
    Консультант смотреть онлайн
    Cкачать фильм Консультант бесплатно
    Консультант скачать торрент в хорошем качестве
    Консультант смотреть онлайн бесплатно в хорошем качестве


    Вы не можете начинать темы
    Вы не можете отвечать на сообщения
    Вы не можете редактировать свои сообщения
    Вы не можете удалять свои сообщения
    Вы не можете голосовать в опросах
    Вы не можете прикреплять файлы к сообщениям
    Вы можете скачивать файлы