новый адрес
Ссылка на приватное зеркало всего за 1$. Внимание количество ограничено!!!

iTunes

1+1

iTunes

мы

iTunes

1

iTunes

Чернобыль

iTunes

Ральф против интернета

Лицензия

ПШазам

Лицензия

Оно 2

Лицензия

30
pack

Вам бонус

ВАЖНО

!!Акция!!

Alien_RageХит недели

RePack

Resident Evil 21

ИГРА 18+

pack

RePack

jed

!!Акция!!

Alien_Rage

RePack

fifa19

RePack

Assassins Creed: Odyssey

RePack

NEED FOR SPEED™ PAYBACK

3 сезон

9 сезон

Бесстыжие 9 сезон

Все сериалы

все сериалы на PB.wtf

RePack

FAR CRY 5
Ребята, катастрофически не хватает 1900р. для оплаты серверов за Октябрь (всвязи с блокировками трафик упал в 3 раза), 1-2р., выручайте.
  

Конец нашего света / Koniec naszego swiata (Ванда Якубовска / Wanda Jakubowska) [1963, Польша, драма, DVDRip от AVP Studio] DUB pb.wtf

Конец нашего света через торрент pb.wtf

Раздают: 1 [ 0 KB/s ]
Размер: 745 MB | Добавлен: 6 мес. назад | Торрент скачан:10 раз
Скачать  

21-05-2019 08:38 Конец нашего света Скачать торрент  

Конец нашего света
Koniec naszego swiata

Страна: СССР
Производство: Старт

Жанр: драма
Год выпуска: 1963
Продолжительность: 01:12:06

Перевод: Профессиональный (дублированный)
Cубтитры: нет
Оригинальная аудиодорожка: нет

Режиссер: Ванда Якубовска / Wanda Jakubowska

В ролях:
Лех Сколимовский, Тереса Вициньская, Петр Аугустыняк, Анджей Бальцежак, Тадеуш Голуй, Иероним Конечка, Тадеуш Мадея, Станислав Шимчик, Аркадиуш Базак, Александр Беднаж, Ежи Белецкий, Ежи Биньчицкий, Тадеуш Богуцкий, Мечислав Висневский, Крыстын Вуйцик, Лех Гжмоциньский, Владислав Гломбик, Винцент Завирский, Эдвард Кушталь, Фердинанд Матысик, Ежи Новак, Владислав Павлович, Эльжбета Старостецкая, Януш Сыкутера, Тадеуш Теодорчик, Адам Форналь, Мариан Цебульский, Януш Хелмицкий, Анджей Газдечка, Александра Кажиньская, Антони Юраш, Людвик Халич, Ежи Сивы, Казимеж Вавжиняк, Рышард Войцеховский, Антони Жулиньский, Антони Пшоняк, Станислав Михальский, Збигнев Грабский...
Об актёрах подробней

Описание:
Рассказ о последних месяцах существования фашистского лагеря смерти в Освенциме.
Герой фильма инженер Генрих Беднарек, попав в лагерь, включается в подпольную работу. Группа подпольщиков спасает людей от газовых камер, добывает лекарства и питание для больных, устраивает побеги. Рискуя жизнью, подпольщики передают на волю сведения и фотоматериалы о фашистских зверствах в лагере смерти. И когда гитлеровцы пытаются уничтожить следы чудовищных преступлений, совершавшихся в лагере, подпольщики организуют восстание и массовый побег из лагеря.

Источник: DVD5 R5
Качество видео: DVDRip
Формат видео: AVI

Видео: 688х288 (2,40:1), 25,000 fps, XviD ~ 1244 kbps avg, 0.251 bit/pixel
Аудио: 48 kHz, Dolby Digital AC3 2.0, 192 kbps

Раздача от:
Общее
Полное имя : Konets.nashego.sveta.1963.DVDRip_[New-team]_by_AVP_Studio.avi
Формат : AVI
Формат/Информация : Audio Video Interleave
Размер файла : 745 Мбайт
Продолжительность : 1 ч. 12 м.
Общий поток : 1445 Кбит/сек
Программа кодирования : VirtualDubMod 1.5.10.3 | www.virtualdub-fr.org || (build 2550/release)
Библиотека кодирования : VirtualDubMod build 2550/release

Видео
Идентификатор : 0
Формат : MPEG-4 Visual
Профиль формата : Advanced Simple@L5
Настройки формата : BVOP1 / Custom Matrix
Параметр BVOP формата : 1
Параметр QPel формата : Нет
Параметр GMC формата : Без точки перехода
Параметр матрицы формата : Выборочная
Идентификатор кодека : XVID
Идентификатор кодека/Подсказка : XviD
Продолжительность : 1 ч. 12 м.
Битрейт : 1244 Кбит/сек
Ширина : 688 пикселей
Высота : 288 пикселей
Соотношение сторон : 2,40:1
Частота кадров : 25,000 кадров/сек
Цветовое пространство : YUV
Субдискретизация насыщенности : 4:2:0
Битовая глубина : 8 бит
Тип развёртки : Прогрессивная
Метод сжатия : С потерями
Бит/(Пиксели*Кадры) : 0.251
Размер потока : 641 Мбайт (86%)
Библиотека кодирования : XviD 73

Аудио
Идентификатор : 1
Формат : AC-3
Формат/Информация : Audio Coding 3
Коммерческое название : Dolby Digital
Идентификатор кодека : 2000
Продолжительность : 1 ч. 12 м.
Вид битрейта : Постоянный
Битрейт : 192 Кбит/сек
Каналы : 2 канала
ChannelLayout : L R
Частота : 48,0 КГц
Частота кадров : 31,250 кадров/сек (1536 SPF)
Битовая глубина : 16 бит
Метод сжатия : С потерями
Размер потока : 99,0 Мбайт (13%)
Выравнивание : Разделение по промежуткам
Продолжительность промежутка : 40 мс. (1,00 видеокадр)
Время предзагрузки промежутка : 500 мс.
pb.wtf



Скачать Конец нашего света через торрент http://picplus.ru/img/1905/21/b882b8d7.png Скачать фильм Конец нашего света через торрент бесплантно в хорошем качестве Описание:Рассказ о последних месяцах существования фашистского лагеря смерти в Освенциме.Герой фильма инженер Генрих Беднарек, попав в ... 5 10 1
Info! Золотая раздача, скачанное не засчитывается.
Торрент: Зарегистрирован [2019-05-21 08:38] · скачан: 10 раз
Статус: √ проверено
Размер: 745 MB
Как cкачать? Как скачать Конец нашего света через торрент | qTorrent

% Раздел Тема Автор DL S | L
Кино СССР [ 744 MB ] Конец нашего света / Koniec naszego swiata [1963 Польша DVDRip-AVC от AVP Studio] DUB AVP Studio Скачать
2 | 0


>> Переходим по ссылке <<
Автоматически подгузится скрипт который настроит ваш браузер на выигрыш!!
После настройки браузера вероятность выигрыша увеличется в 4.1-4,6 раза.
В течение 6 секунд вам откроется настроенный интерфейс казино, с повышенной вероятностью выигрыша.






Отзывы и комментарии о схеме читаем и пишем здесь: ---> Отзывы и комментарии о схеме

Новые благодарочки в телеграм довольных пользователей:
скриншот   скриншот   скриншот   скриншот   скриншот
    Дорогой пользователь! Огромная просьба, поблагодарите релизера, оцените раздачу и оставьте свои комментарий, если Вы скачали Конец нашего света через торрент бесплатно! Внесите свою лепту в развитие PiratBit!
    Комментировать посты могут только пользователи прошедшие не сложную регистрацию
    Показать сообщения:    

    Конец нашего света через торрент
    Скачать бесплатно Конец нашего света
    Конец нашего света скачать торрент
    Конец нашего света смотреть онлайн
    Cкачать фильм Конец нашего света бесплатно
    Конец нашего света скачать торрент в хорошем качестве
    Конец нашего света смотреть онлайн бесплатно в хорошем качестве


    Вы не можете начинать темы
    Вы не можете отвечать на сообщения
    Вы не можете редактировать свои сообщения
    Вы не можете удалять свои сообщения
    Вы не можете голосовать в опросах
    Вы не можете прикреплять файлы к сообщениям
    Вы можете скачивать файлы