Ссылка на приватное зеркало нашего сайта всего за 1$. Внимание количество ограничено!!!

2 сезон

iTunes

1 сезон

1

iTunes

iTunes

iTunes

1 сезон

RePack

30

ИГРА 18+

pack

ВАЖНО

!!Акция!!

Alien_RageХит недели

RePack

MK11
pack

Забери бонус

RePack

jed

!!Акция!!

Alien_Rage

RePack

fifa19

RePack

Assassins Creed: Odyssey

RePack

NEED FOR SPEED™ PAYBACK

4 сезон

9 сезон

Бесстыжие 9 сезон

Все сериалы

все сериалы на PB.wtf

RePack

FAR CRY 5
  

Mia Magma: Hoehepunkte (Magma Film Country) [2013 г., Best of ... Sampler, Blondinen, Deutsch, Empfehlungen, Sex Allgemein, DVDRip, Оригинал] pb.wtf

Mia Magma: Hoehepunkte через торрент pb.wtf

Размер: 1.47 GB | Добавлен: 1 год 5 мес. назад | Торрент скачан:271 раз
Скачать  

21-05-2019 09:25 Mia Magma: Hoehepunkte Скачать торрент  

Mia Magma: HoehepunkteГод выпуска: 2013
Страна: Deutschland
Жанр: Best of ... Sampler, Blondinen, Deutsch, Empfehlungen, Sex Allgemein
Перевод: отсутствует (оригинал)
Субтитры: отсутствуют

Режиссер: Magma Film Country
В ролях: Mia Magma & Co

Описание: 168 geile Minuten mit Superstar Mia Magma.
168 роговой минут с суперзвездой Mia Magma.

Качество: DVDRip
Формат: MP4
Видео кодек: AVC
Аудио кодек: AAC
Видео: 704x400 (16:9), 25 fps ~ 1180 Kbps
Аудио: 48 KHz, 2 ch ~ 96 Kb/s (немецкий)
скриншот   скриншот   скриншот   скриншот   скриншот   скриншот   скриншот  

Общее
Полное имя : Q:\TorF\Hohepunkte 1 Mia Magma.mp4
Формат : MPEG-4
Профиль формата : Base Media
Идентификатор кодека : isom
Размер файла : 1,47 Гбайт
Продолжительность : 2 ч. 43 м.
Режим общего битрейта : Переменный
Общий поток : 1281 Кбит/сек
Дата кодирования : UTC 2014-04-02 16:32:44
Дата пометки : UTC 2014-04-02 16:32:44

Видео
Идентификатор : 1
Формат : AVC
Формат/Информация : Advanced Video Codec
Профиль формата : High@L3.1
Параметр CABAC формата : Да
Параметр ReFrames формата : 5 кадров
Идентификатор кодека : avc1
Идентификатор кодека/Информация : Advanced Video Coding
Продолжительность : 2 ч. 43 м.
Битрейт : 1181 Кбит/сек
Максимальный битрейт : 4094 Кбит/сек
Ширина : 704 пикселя
Высота : 400 пикселей
Соотношение сторон : 16:9
Режим частоты кадров : Постоянный
Частота кадров : 25,000 кадров/сек
Цветовое пространство : YUV
Субдискретизация насыщенности : 4:2:0
Битовая глубина : 8 бит
Тип развёртки : Прогрессивная
Бит/(Пиксели*Кадры) : 0.168
Размер потока : 1,35 Гбайт (92%)
Библиотека кодирования : x264 core 142 r2409 d6b4e63
Настройки программы : cabac=1 / ref=5 / deblock=1:0:0 / analyse=0x3:0x133 / me=umh / subme=8 / psy=1 / psy_rd=1.00:0.00 / mixed_ref=1 / me_range=16 / chroma_me=1 / trellis=1 / 8x8dct=1 / cqm=0 / deadzone=21,11 / fast_pskip=0 / chroma_qp_offset=-2 / threads=12 / lookahead_threads=2 / sliced_threads=0 / nr=0 / decimate=1 / interlaced=0 / bluray_compat=0 / constrained_intra=0 / bframes=3 / b_pyramid=2 / b_adapt=2 / b_bias=0 / direct=3 / weightb=1 / open_gop=0 / weightp=2 / keyint=250 / keyint_min=25 / scenecut=40 / intra_refresh=0 / rc_lookahead=50 / rc=crf / mbtree=1 / crf=20.0 / qcomp=0.60 / qpmin=0 / qpmax=69 / qpstep=4 / ip_ratio=1.40 / aq=1:1.00
Дата кодирования : UTC 2014-04-02 16:32:44
Дата пометки : UTC 2014-04-02 16:33:06

Аудио
Идентификатор : 2
Формат : AAC
Формат/Информация : Advanced Audio Codec
Профиль формата : LC
Идентификатор кодека : 40
Продолжительность : 2 ч. 43 м.
Вид битрейта : Переменный
Битрейт : 96,0 Кбит/сек
Максимальный битрейт : 120 Кбит/сек
Каналы : 2 канала
Расположение каналов : Front: L R
Частота : 48,0 КГц
Метод сжатия : С потерями
Размер потока : 112 Мбайт (7%)
Язык : German
Дата кодирования : UTC 2014-04-02 15:12:55
Дата пометки : UTC 2014-04-02 16:33:06

pb.wtf



pack Скачать Mia Magma: Hoehepunkte через торрент http://pic.kartinco.top/images/2018/wf6z2.jpg Скачать фильм Mia Magma: Hoehepunkte через торрент бесплантно в хорошем качестве Описание: 168 geile Minuten mit Superstar Mia Magma.168 роговой минут с суперзвездой Mia ... 8.7 10 7
Info! Золотая раздача, скачанное не засчитывается.
Торрент: Зарегистрирован [2019-05-21 09:25] · скачан: 271 раз
Статус: √ проверено
Размер: 1.47 GB
Как cкачать? Как скачать Mia Magma: Hoehepunkte через торрент | qTorrent

% Раздел Тема Автор DL S | L
Порно фильмы без сюжета [ 1.21 GB ] Mia Magma: Hoehepunkte 2 [2014 Best of ... Sampler Blondinen Die besten Filme Empfehlungen Gonzo DVDRip Оригинал] PROCTOLOG Скачать
1 | 0

28-11-2019 20:33  

Отключить всю рекламу на сайте

21-05-2019 10:08 Mia Magma: Hoehepunkte Скачать торрент  

Топик был перенесен из форума Полнометражные порно фильмы в форум Порно фильмы без сюжета


sheker187pb.wtf



pack
    Дорогой пользователь! Огромная просьба, поблагодарите релизера, оцените раздачу и оставьте свои комментарий, если Вы скачали Mia Magma: Hoehepunkte через торрент бесплатно! Внесите свою лепту в развитие PiratBit!
    Комментировать посты могут только пользователи прошедшие не сложную регистрацию
    Показать сообщения:    

    Mia Magma: Hoehepunkte через торрент
    Скачать бесплатно Mia Magma: Hoehepunkte
    Mia Magma: Hoehepunkte скачать торрент
    Mia Magma: Hoehepunkte смотреть онлайн
    Cкачать фильм Mia Magma: Hoehepunkte бесплатно
    Mia Magma: Hoehepunkte скачать торрент в хорошем качестве
    Mia Magma: Hoehepunkte смотреть онлайн бесплатно в хорошем качестве


    Вы не можете начинать темы
    Вы не можете отвечать на сообщения
    Вы не можете редактировать свои сообщения
    Вы не можете удалять свои сообщения
    Вы не можете голосовать в опросах
    Вы не можете прикреплять файлы к сообщениям
    Вы можете скачивать файлы