Ссылка на приватное зеркало нашего сайта всего за 1$. Внимание количество ограничено!!!

2 сезон

iTunes

1 сезон

1

2 сезон

2 сезон

iTunes

1 сезон

RePack

30

Новинка

ВАЖНО

ИГРА 18+

pack

RePack

MK11
pack

Забери бонус

RePack

jed

!!Акция!!

Alien_Rage

RePack

fifa19

RePack

Assassins Creed: Odyssey

RePack

NEED FOR SPEED™ PAYBACK

4 сезон

9 сезон

Бесстыжие 9 сезон

Все сериалы

все сериалы на PB.wtf

RePack

FAR CRY 5
  

Реальные упыри / Чем мы заняты во тьме / What We Do in the Shadows / Сезон: 1 / Серии: 1-10 из 10 (Джемейн Клемент, Джейсон Уолинер, Тайка Вайтити) [2019, Комедия, ужасы, мокьюментари WEBRip 720p] [MVO] (Good People) pb.wtf

Реальные упыри через торрент pb.wtf

Раздают: 2 [ 0 KB/s ]
Размер: 10.94 GB | Добавлен: 10 мес. назад | Торрент скачан:83 раза
Скачать  

21-05-2019 19:53 Реальные упыри Скачать торрент  

Чем мы заняты в тени / What We Do in the Shadows
«***»
Страна: США
Год выпуска: 2019
Жанр: комедия, ужасы
Продолжительность: ~ 00:30:00 серия
Перевод: Профессиональный (двухголосый закадровый) Good People [Рыбов и Трындяйкина] *без цензуры*
Субтитры: английские

Режиссер: Джемейн Клемент, Джейсон Уолинер, Тайка Вайтити

В ролях:

Кайван Новак, Харви Гильен, Натасия Деметриу, Мэтт Берри, Марк Прокш, Вероника Словиковска, Крис Перфетти, Александра Хенриксон, Шиван Фэллон и др.

Описание:

Три главных героя делят дом, решают бытовые конфликты, ищут любовь — и свежую кровь, без которой им, вампирам, не прожить.

rating

Качество: WEBRip 720p
Формат: MKV

Видео: 1280х720 (16:9) | X264 | ~4200 kbps | 23.976 fps
Аудио №1: AC3, 48,0 kHz, 6 ch, 640 kbps | Good People*
Аудио №2: E-AC3, 48,0 kHz, 6 ch, 640 kbps | Original
скриншот  скриншот  скриншот  

General
Unique ID : 192121647008900256107539548997908937791 (0x90894885F3AEABC8BD4413FD1213BC3F)
Complete name : What.We.Do.in.the.Shadows.S01E02.City.Council.720p.AMZN.WEB-DL.DDP5.1.H.264-GoodPeople.mkv
Format : Matroska
Format version : Version 4 / Version 2
File size : 972 MiB
Duration : 24mn 7s
Overall bit rate : 5 634 Kbps
Encoded date : UTC 2019-05-16 05:27:58
Writing application : mkvmerge v17.0.0 ('Be Ur Friend') 64-bit
Writing library : libebml v1.3.5 + libmatroska v1.4.8
DURATION : 00:24:07.616000000
NUMBER_OF_FRAMES : 45238
NUMBER_OF_BYTES : 115809280
_STATISTICS_WRITING_APP : mkvmerge v17.0.0 ('Be Ur Friend') 64-bit
_STATISTICS_WRITING_DATE_UT : 2019-05-16 05:27:58
_STATISTICS_TAGS : BPS DURATION NUMBER_OF_FRAMES NUMBER_OF_BYTES

Video
ID : 1
Format : AVC
Format/Info : Advanced Video Codec
Format profile : High@L3.1
Format settings, CABAC : Yes
Format settings, ReFrames : 4 frames
Codec ID : V_MPEG4/ISO/AVC
Duration : 24mn 7s
Bit rate mode : Constant
Bit rate : 4 242 Kbps
Nominal bit rate : 6 000 Kbps
Width : 1 280 pixels
Height : 720 pixels
Display aspect ratio : 16:9
Frame rate mode : Constant
Frame rate : 23.976 fps
Color space : YUV
Chroma subsampling : 4:2:0
Bit depth : 8 bits
Scan type : Progressive
Bits/(Pixel*Frame) : 0.192
Stream size : 732 MiB (75%)
Default : Yes
Forced : No
Color range : Limited
Color primaries : BT.709
Transfer characteristics : BT.709
Matrix coefficients : BT.709

Audio #1
ID : 2
Format : AC-3
Format/Info : Audio Coding 3
Mode extension : CM (complete main)
Format settings, Endianness : Big
Codec ID : A_AC3
Duration : 24mn 7s
Bit rate mode : Constant
Bit rate : 640 Kbps
Channel(s) : 6 channels
Channel positions : Front: L C R, Side: L R, LFE
Sampling rate : 48.0 KHz
Compression mode : Lossy
Stream size : 110 MiB (11%)
Language : Russian
Default : Yes
Forced : No

Audio #2
ID : 3
Format : E-AC-3
Format/Info : Audio Coding 3
Format settings, Endianness : Big
Codec ID : A_EAC3
Duration : 24mn 7s
Bit rate mode : Constant
Bit rate : 640 Kbps
Channel(s) : 6 channels
Channel positions : Front: L C R, Side: L R, LFE
Sampling rate : 48.0 KHz
Compression mode : Lossy
Stream size : 110 MiB (11%)
Language : English
Default : No
Forced : No

Text
ID : 4
Format : UTF-8
Codec ID : S_TEXT/UTF8
Codec ID/Info : UTF-8 Plain Text
Title : English
Language : English
Default : No
Forced : No

При каждом добавлении создаётся новый торрент. Чтобы начать докачку новой серии, пользователям необходимо сделать следующее:
- остановить скачивание;
- удалить старый торрент у себя из клиента (старые серии удалять не надо);
- скачать новый торрент и запустить его у себя в клиенте вместо старого, при этом указать клиенту путь в старую папку, куда и должно происходить скачивание новых серий.
pb.wtf



Скачать Реальные упыри через торрент http://img14.lostpic.net/2019/05/11/67b828825788a00ac14435f686cc4d1e.jpg Скачать фильм Реальные упыри через торрент бесплантно в хорошем качестве Описание:Три главных героя делят дом, решают бытовые конфликты, ищут любовь — и свежую кровь, без которой им, вампирам, не прожить. ... 10 10 3
Торрент: Зарегистрирован [2020-01-05 08:05] · скачан: 83 раз
Статус: √ проверено
Размер: 10.94 GB
Как cкачать? Как скачать Реальные упыри через торрент | qTorrent

28-11-2019 20:33  

Отключить всю рекламу на сайте

    Дорогой пользователь! Огромная просьба, поблагодарите релизера, оцените раздачу и оставьте свои комментарий, если Вы скачали Реальные упыри через торрент бесплатно! Внесите свою лепту в развитие PiratBit!
    Комментировать посты могут только пользователи прошедшие не сложную регистрацию
    Показать сообщения:    

    Реальные упыри через торрент
    Скачать бесплатно Реальные упыри
    Реальные упыри скачать торрент
    Реальные упыри смотреть онлайн
    Cкачать фильм Реальные упыри бесплатно
    Реальные упыри скачать торрент в хорошем качестве
    Реальные упыри смотреть онлайн бесплатно в хорошем качестве


    Вы не можете начинать темы
    Вы не можете отвечать на сообщения
    Вы не можете редактировать свои сообщения
    Вы не можете удалять свои сообщения
    Вы не можете голосовать в опросах
    Вы не можете прикреплять файлы к сообщениям
    Вы можете скачивать файлы