Ссылка на приватное зеркало нашего сайта всего за 1$. Внимание количество ограничено!!!

2 сезон

iTunes

1 сезон

1

2 сезон

2 сезон

iTunes

1 сезон

RePack

30

Ultimate

ВАЖНО

ИГРА 18+

pack

RePack

MK11
pack

Забери бонус

RePack

jed

!!Акция!!

Alien_Rage

RePack

fifa19

RePack

Assassins Creed: Odyssey

RePack

NEED FOR SPEED™ PAYBACK

4 сезон

9 сезон

Бесстыжие 9 сезон

Все сериалы

все сериалы на PB.wtf

RePack

FAR CRY 5
  

Руки-ноги за любовь / Burke and Hare (Джон Лэндис) [2010, триллер, комедия, BDRip 1080p by msltel] DUB, DVO, AVO pb.wtf

Руки-ноги за любовь через торрент pb.wtf

Размер: 10.81 GB | Добавлен: 1 год 6 мес. назад | Торрент скачан:20 раз
Скачать  

22-05-2019 08:47 Руки-ноги за любовь Скачать торрент  

Название: Руки-ноги за любовь
Оригинальное название: Burke and Hare
Год выпуска: 2010
Страна: Великобритания
Жанр: триллер, комедия
Продолжительность: 01:31:27
Перевод: дублированный, профессиональный двухголосый, авторский

Режиссер: Джон Лэндис
В ролях: Саймон Пегг, Энди Серкис, Айла Фишер, Том Уилкинсон, Джессика Хайнс, Билл Бэйли, Тим Карри, Кристофер Ли, Дэвид Хеймен, Хью Бонневилль

О фильме: Фильм основан на реальных событиях - на серии из 17 убийств, совершённых с ноября 1827 по 31 октября 1828 года в окрестностях улицы Уэст-порт в Эдинбурге ирландскими иммигрантами Уильямом Бёрком и Уильямом Хэром. Бёрк и Хэр продавали трупы своих жертв в качестве материала для препарирования известному эдинбургскому врачу Роберту Ноксу — учредителю частных анатомических курсов для студентов Эдинбургского медицинского колледжа...



Качество: BDRip 1080p
Формат: MKV
Видео: MPEG-4 AVC, 13.1 Mбит/с, 1920x800
Аудио 1: русский, AC3, 384 kbps, 6 ch, 48 kHz [дублированный]
Аудио 2: русский, DTS, 1509 kbps, 6 ch, 48 kHz [закадровый двухголосый, OzzTV]
Аудио 3: русский, AC3, 448 kbps, 6 ch, 48 kHz [авторский, Вячеслав Котов]
Аудио 4: английский, DTS, 1509 kbps, 6 ch, 48 kHz [оригинал]
Субтитры 1: русские (el-brujo)
Субтитры 2: английские
Главы/чаптеры
Общее
Уникальный идентификатор : 238397211576772768461639507739038329321 (0xB359A20206A0A3A39ADCFD1F139229E9)
Полное имя : D:\Video\Руки-ноги за любовь.2010.BDRip 1080p by msltel.mkv
Формат : Matroska
Версия формата : Version 4
Размер файла : 10,8 Гбайт
Продолжительность : 1 ч. 31 м.
Общий поток : 16,9 Мбит/сек
Название фильма : Rip by msltel
Дата кодирования : UTC 2019-05-22 02:10:45
Программа кодирования : mkvmerge v8.2.0 ('World of Adventure') 64bit
Библиотека кодирования : libebml v1.3.1 + libmatroska v1.4.2

Видео
Идентификатор : 1
Формат : AVC
Формат/Информация : Advanced Video Codec
Профиль формата : High@L4.1
Настройки формата : CABAC / 4 Ref Frames
Параметр CABAC формата : Да
Параметр RefFrames формата : 4 кадра
Идентификатор кодека : V_MPEG4/ISO/AVC
Продолжительность : 1 ч. 31 м.
Битрейт : 13,1 Мбит/сек
Ширина : 1920 пикселей
Высота : 800 пикселей
Соотношение сторон : 2,40:1
Режим частоты кадров : Постоянный
Частота кадров : 24,000 кадра/сек
Цветовое пространство : YUV
Субдискретизация насыщенности : 4:2:0
Битовая глубина : 8 бит
Тип развёртки : Прогрессивная
Бит/(Пиксели*Кадры) : 0.355
Размер потока : 8,35 Гбайт (77%)
Библиотека кодирования : x264 core 157 r2935 545de2f
Настройки программы : cabac=1 / ref=4 / deblock=1:-2:-2 / analyse=0x3:0x113 / me=umh / subme=11 / psy=1 / psy_rd=1.00:0.15 / mixed_ref=1 / me_range=32 / chroma_me=1 / trellis=2 / 8x8dct=1 / cqm=0 / deadzone=21,11 / fast_pskip=0 / chroma_qp_offset=-3 / threads=6 / lookahead_threads=1 / sliced_threads=0 / nr=0 / decimate=1 / interlaced=0 / bluray_compat=0 / constrained_intra=0 / bframes=10 / b_pyramid=2 / b_adapt=2 / b_bias=0 / direct=1 / weightb=1 / open_gop=0 / weightp=2 / keyint=230 / keyint_min=23 / scenecut=40 / intra_refresh=0 / rc_lookahead=40 / rc=crf / mbtree=1 / crf=16.0 / qcomp=0.60 / qpmin=0 / qpmax=69 / qpstep=4 / vbv_maxrate=50000 / vbv_bufsize=62500 / crf_max=0.0 / nal_hrd=none / filler=0 / ip_ratio=1.40 / aq=1:1.00
Язык : English
Default : Да
Forced : Нет

Аудио #1
Идентификатор : 2
Формат : AC-3
Формат/Информация : Audio Coding 3
Коммерческое название : Dolby Digital
Идентификатор кодека : A_AC3
Продолжительность : 1 ч. 31 м.
Вид битрейта : Постоянный
Битрейт : 384 Кбит/сек
Каналы : 6 каналов
ChannelLayout : L R C LFE Ls Rs
Частота : 48,0 КГц
Частота кадров : 31,250 кадров/сек (1536 SPF)
Битовая глубина : 16 бит
Метод сжатия : С потерями
Размер потока : 251 Мбайт (2%)
Заголовок : DUB
Язык : Russian
ServiceKind/String : Complete Main
Default : Да
Forced : Нет

Аудио #2
Идентификатор : 3
Формат : DTS
Формат/Информация : Digital Theater Systems
Идентификатор кодека : A_DTS
Продолжительность : 1 ч. 31 м.
Вид битрейта : Постоянный
Битрейт : 1510 Кбит/сек
Каналы : 6 каналов
ChannelLayout : C L R Ls Rs LFE
Частота : 48,0 КГц
Частота кадров : 93,750 кадра/сек (512 SPF)
Битовая глубина : 24 бит
Метод сжатия : С потерями
Размер потока : 988 Мбайт (9%)
Заголовок : DVO OzzTV
Язык : Russian
Default : Нет
Forced : Нет

Аудио #3
Идентификатор : 4
Формат : AC-3
Формат/Информация : Audio Coding 3
Коммерческое название : Dolby Digital
Идентификатор кодека : A_AC3
Продолжительность : 1 ч. 31 м.
Вид битрейта : Постоянный
Битрейт : 448 Кбит/сек
Каналы : 6 каналов
ChannelLayout : L R C LFE Ls Rs
Частота : 48,0 КГц
Частота кадров : 31,250 кадров/сек (1536 SPF)
Битовая глубина : 16 бит
Метод сжатия : С потерями
Размер потока : 293 Мбайт (3%)
Заголовок : Вячеслав Котов
Язык : Russian
ServiceKind/String : Complete Main
Default : Нет
Forced : Нет

Аудио #4
Идентификатор : 5
Формат : DTS
Формат/Информация : Digital Theater Systems
Идентификатор кодека : A_DTS
Продолжительность : 1 ч. 31 м.
Вид битрейта : Постоянный
Битрейт : 1509 Кбит/сек
Каналы : 6 каналов
ChannelLayout : C L R Ls Rs LFE
Частота : 48,0 КГц
Частота кадров : 93,750 кадра/сек (512 SPF)
Битовая глубина : 16 бит
Метод сжатия : С потерями
Размер потока : 987 Мбайт (9%)
Заголовок : original
Язык : English
Default : Нет
Forced : Нет

Текст #1
Идентификатор : 6
Формат : UTF-8
Идентификатор кодека : S_TEXT/UTF8
Идентификатор кодека/Информация : UTF-8 Plain Text
Продолжительность : 1 ч. 25 м.
Битрейт : 105 бит/сек
ElementCount : 1049
Размер потока : 66,2 Кбайт (0%)
Заголовок : русские el-brujo
Язык : Russian
Default : Нет
Forced : Нет

Текст #2
Идентификатор : 7
Формат : UTF-8
Идентификатор кодека : S_TEXT/UTF8
Идентификатор кодека/Информация : UTF-8 Plain Text
Продолжительность : 1 ч. 26 м.
Битрейт : 63 бит/сек
ElementCount : 1131
Размер потока : 40,4 Кбайт (0%)
Заголовок : английские
Язык : English
Default : Нет
Forced : Нет

Меню
00:00:00.000 : en:00:00:00.000
00:07:35.333 : en:00:07:35.333
00:16:16.417 : en:00:16:16.417
00:24:12.833 : en:00:24:12.833
00:33:12.000 : en:00:33:12.000
00:39:55.500 : en:00:39:55.500
00:47:38.000 : en:00:47:38.000
00:57:30.417 : en:00:57:30.417
01:06:42.000 : en:01:06:42.000
01:11:47.000 : en:01:11:47.000
01:18:08.000 : en:01:18:08.000
01:24:48.000 : en:01:24:48.000
pb.wtf



Скачать Руки-ноги за любовь через торрент https://a.radikal.ru/a15/1905/23/2cfcf28668d0.png Скачать фильм Руки-ноги за любовь через торрент бесплантно в хорошем качестве О фильме: Фильм основан на реальных событиях - на серии из 17 убийств, совершённых с ноября 1827 по 31 октября 1828 года в окрестностях ... 10 10 2
Торрент: Зарегистрирован [2019-05-22 08:47] · скачан: 20 раз
Статус: √ проверено
Размер: 10.81 GB
Как cкачать? Как скачать Руки-ноги за любовь через торрент | qTorrent

% Раздел Тема Автор DL S | L
Фильмы [HD 720p, 1080p] (Хороший звук DUB, MVO) [ 4.21 GB ] Руки-ноги за любовь / Burke and Hare [2010 BDRip 720p by msltel] DUB DVO AVO msltel Скачать
1 | 0

28-11-2019 20:33  

Отключить всю рекламу на сайте

    Дорогой пользователь! Огромная просьба, поблагодарите релизера, оцените раздачу и оставьте свои комментарий, если Вы скачали Руки-ноги за любовь через торрент бесплатно! Внесите свою лепту в развитие PiratBit!
    Комментировать посты могут только пользователи прошедшие не сложную регистрацию
    Показать сообщения:    

    Руки-ноги за любовь через торрент
    Скачать бесплатно Руки-ноги за любовь
    Руки-ноги за любовь скачать торрент
    Руки-ноги за любовь смотреть онлайн
    Cкачать фильм Руки-ноги за любовь бесплатно
    Руки-ноги за любовь скачать торрент в хорошем качестве
    Руки-ноги за любовь смотреть онлайн бесплатно в хорошем качестве


    Вы не можете начинать темы
    Вы не можете отвечать на сообщения
    Вы не можете редактировать свои сообщения
    Вы не можете удалять свои сообщения
    Вы не можете голосовать в опросах
    Вы не можете прикреплять файлы к сообщениям
    Вы можете скачивать файлы