Anonymous, доброй ночи, присоединяйтесь к нам в Telegram!, здесь всегда актуальный адрес сайта, оперативная поддержка и многое другое!

>

5.6

iTunes

7.4

MVO

5.7

MVO

1

7.7

1 сезон

6.8

iTunes

7.3

1 сезон

13

6.7

1 сезон

8.3

RePack

30

ULTIMATE

pack

9.9

Лицензия

ВАЖНО

ИГРА 18+

pack

7.3

RePack

MK11

7.7

RePack

jed

7.8

RePack

fifa19

8.5

RePack

RDR2

RePack

NEED FOR SPEED™ PAYBACK

4 сезон

9 сезон

Бесстыжие 9 сезон

Все сериалы

все сериалы на PB.wtf

RePack

FAR CRY 5

Anonymous, доброй ночи, мы катастрофически не успеваем собрать деньги на оплату серверов, помогите нам пожалуйста 5,10,15р., для нас важна любая помощь . В качестве благодарности мы отключим Вам всю рекламу на сайте (укажите свой ник в строку Ваше имя)!

×
  
Magnet ссылка

Секта/ Серии: 1-8 из 8 (Гела Баблуани) [2019 г., Драма, триллер, WEB-DLRip] pb.wtf

Секта через торрент pb.wtf

Размер: 4.69 GB | Добавлен: 2 года 4 мес. назад | Торрент скачан:276 раз
Смотреть онлайн Секта | Скачать    Ребята, помогите собрать деньги на оплату серверов!!!

23-05-2019 01:52 Секта Скачать торрент  

Секта/ Серии: 1-8 из 8
Год выпуска: 2019
Страна: Россия
Жанр: Драма, триллер
Продолжительность: 8 х ~ 00:45:00
Субтитры: Отсутствуют

Режиссер: Гела Баблуани



В ролях: Светлана Ходченкова, Анастасия Чистякова (II), Филипп Янковский, Евгений Коряковский, Гела Баблуани, Андрей Филиппак, Вера Романова, Павел Кузьмин, Григорий Сиятвинда, Марта Тимофеева, Екатерина Волкова

Описание: Специалисты по выводу людей из культов, депрограммеры, получают заказ освободить из секты «Первозданных» звезду рекламных роликов, девушку Нику. Методы депрограммеров крайне жесткие – на грани психологического и физического насилия. Для ухода за Никой депрограммеры нанимают сиделку Лилю. Но все идет не по плану, когда могущественный лидер секты объявляет настоящую войну депрограммерам и идет на все, чтобы вернуть Нику..

Качество: WEB-DLRip
Формат: AVI
Видео кодек: XviD
Аудио кодек: AC3
Видео: XviD, ~ 1700 Кбит/с, 720x400
Аудио#1: AC3, 2 ch, 192 Кбит/с
скриншот   скриншот   скриншот   скриншот  

General
Complete name : H:\релизы.торрентфайл\Sekta.2019.WEB-DLRip.25Kuzmich\Sekta.S01E02.WEB-DLRip.25Kuzmich.avi
Format : AVI
Format/Info : Audio Video Interleave
File size : 599 MiB
Duration : 40mn 18s
Overall bit rate : 2 079 Kbps
Writing application : VirtualDubMod 1.5.10.3 | www.virtualdub-fr.org || (build 2550/release)
Writing library : VirtualDubMod build 2550/release

Video
ID : 0
Format : MPEG-4 Visual
Format profile : Advanced Simple@L5
Format settings, BVOP : 1
Format settings, QPel : No
Format settings, GMC : No warppoints
Format settings, Matrix : Default (MPEG)
Codec ID : XVID
Codec ID/Hint : XviD
Duration : 40mn 18s
Bit rate : 1 877 Kbps
Width : 720 pixels
Height : 400 pixels
Display aspect ratio : 16:9
Frame rate : 25.000 fps
Color space : YUV
Chroma subsampling : 4:2:0
Bit depth : 8 bits
Scan type : Progressive
Compression mode : Lossy
Bits/(Pixel*Frame) : 0.261
Stream size : 541 MiB (90%)
Writing library : XviD 73

Audio
ID : 1
Format : AC-3
Format/Info : Audio Coding 3
Mode extension : CM (complete main)
Format settings, Endianness : Big
Codec ID : 2000
Duration : 40mn 18s
Bit rate mode : Constant
Bit rate : 192 Kbps
Channel(s) : 2 channels
Channel positions : Front: L R
Sampling rate : 48.0 KHz
Bit depth : 16 bits
Compression mode : Lossy
Stream size : 55.3 MiB (9%)
Alignment : Split accross interleaves
Interleave, duration : 40 ms (1.00 video frame)
Interleave, preload duration : 500 ms

pb.wtf



Скачать Секта через торрент https://pic1.kartinco.top/images/12/wu3xb.jpg Скачать, смотреть онлайн Секта бесплантно в хорошем качестве Описание: Специалисты по выводу людей из культов, депрограммеры, получают заказ освободить из секты «Первозданных» звезду рекламных ... 7.8 10 5
Торрент: Зарегистрирован [2019-05-23 01:52] · скачан: 276 раз
Статус: √ проверено
Размер: 4.69 GB
Как cкачать? Как скачать Секта через торрент | UTorrent

% Раздел Тема Автор DL S | L
TNT serials [ 4.64 GB ] Секта / Сезон: 1 / Серии: 1-8 из 8 [2019 WEB-DLRip-AVC] bober100 Скачать
1 | 1
TNT serials [ 6.43 GB ] Секта / Сезон: 1 / Серии: 1-8 из 8 [2019 WEB-DL 720p] bober100 Скачать
1 | 0
TNT serials [ 10.8 GB ] Секта / Сезон: 1 / Серии: 1-8 из 8 [2019 WEB-DL 1080p] bober100 Скачать
1 | 1
TNT serials [ 5.11 GB ] Секта / Серии: 1-8 из 8 [2019 WEBRip-AVC] aleksan55 Скачать
2 | 0

28-11-2019 20:33  

Отключить всю рекламу на сайте

24-05-2019 18:41 Секта Скачать торрент  

Топик был перенесен из форума Наши сериалы в форум TNT serials


Enigma2010pb.wtf



    Дорогой пользователь! Огромная просьба, поблагодарите релизера, оцените раздачу и оставьте свои комментарий, если Вы скачали Секта через торрент бесплатно!
    Комментировать посты могут только пользователи прошедшие не сложную регистрацию
    Показать сообщения:    

    Секта через торрент
    Скачать бесплатно Секта
    Секта скачать торрент
    Секта смотреть онлайн
    Cкачать фильм Секта бесплатно
    Секта скачать торрент в хорошем качестве
    Секта смотреть онлайн бесплатно в хорошем качестве


    Вы не можете начинать темы
    Вы не можете отвечать на сообщения
    Вы не можете редактировать свои сообщения
    Вы не можете удалять свои сообщения
    Вы не можете голосовать в опросах
    Вы не можете прикреплять файлы к сообщениям
    Вы можете скачивать файлы