новый адрес
Ссылка на приватное зеркало всего за 1$. Внимание количество ограничено!!!

iTunes

1+1

iTunes

мы

iTunes

1

iTunes

Чернобыль

iTunes

Ральф против интернета

Лицензия

ПШазам

Лицензия

Оно 2

Лицензия

30
pack

Вам бонус

ВАЖНО

!!Акция!!

Alien_RageХит недели

RePack

Resident Evil 21

ИГРА 18+

pack

RePack

jed

!!Акция!!

Alien_Rage

RePack

fifa19

RePack

Assassins Creed: Odyssey

RePack

NEED FOR SPEED™ PAYBACK

3 сезон

9 сезон

Бесстыжие 9 сезон

Все сериалы

все сериалы на PB.wtf

RePack

FAR CRY 5
Ребята, катастрофически не хватает 1900р. для оплаты серверов за Октябрь (всвязи с блокировками трафик упал в 3 раза), 1-2р., выручайте.
  

Мечте навстречу (Михаил Карюков, Отар Коберидзе) [1963, СССР, фантастика, DVDRip от AVP Studio] pb.wtf

Мечте навстречу через торрент pb.wtf

Раздают: 5 [ 0 KB/s ]
Размер: 744 MB | Добавлен: 5 мес. назад | Торрент скачан:9 раз
Скачать  

23-05-2019 07:42 Мечте навстречу Скачать торрент  

Мечте навстречу
Страна: СССР
Производство: Одесская киностудия

Жанр: фантастика
Год выпуска: 1963
Продолжительность: 01:02:50

Перевод: Не требуется
Cубтитры: нет
Оригинальная аудиодорожка: русский

Режиссер: Михаил Карюков, Отар Коберидзе

В ролях:
Николай Тимофеев, Отар Коберидзе, Лариса Гордейчик, Борис Борисёнок, Алексей Генесин, Пеэтер Кард, Николай Волков (старший), Т. Почепа...
Об актёрах подробней

Описание:
Инопланетный звездолет, направляющийся на Землю с планеты Центурий, из-за аварии вынужден совершить аварийную посадку на Марс. Чтобы помочь пришельцам, с Земли стартует межзвездный корабль "Океан", на борту которого находится радиоастроном Таня. Вскоре на Луну, с целью обеспечения "Океана" дополнительной энергией, посылают вторую ракету, один из членов экипажа которой - Андрей - человек, который бесконечно дорог Тане...

Источник: DVD5 R5
Качество видео: DVDRip
Формат видео: AVI

Видео: 704х528 (4:3), 25,000 fps, XviD ~ 1455 kbps avg, 0.157 bit/pixel
Аудио: 48 kHz, Dolby Digital AC3 2.0, 192 kbps

Раздача от:
Общее
Полное имя : Mechte.navstrechu.1963.DVDRip_[New-team]_by_AVP_Studio.avi
Формат : AVI
Формат/Информация : Audio Video Interleave
Размер файла : 744 Мбайт
Продолжительность : 1 ч. 2 м.
Общий поток : 1655 Кбит/сек
Программа кодирования : VirtualDubMod 1.5.10.3 | www.virtualdub-fr.org || (build 2550/release)
Библиотека кодирования : VirtualDubMod build 2550/release

Видео
Идентификатор : 0
Формат : MPEG-4 Visual
Профиль формата : Advanced Simple@L5
Настройки формата : BVOP1 / Custom Matrix
Параметр BVOP формата : 1
Параметр QPel формата : Нет
Параметр GMC формата : Без точки перехода
Параметр матрицы формата : Выборочная
Идентификатор кодека : XVID
Идентификатор кодека/Подсказка : XviD
Продолжительность : 1 ч. 2 м.
Битрейт : 1455 Кбит/сек
Ширина : 704 пикселя
Высота : 528 пикселей
Соотношение сторон : 4:3
Частота кадров : 25,000 кадров/сек
Цветовое пространство : YUV
Субдискретизация насыщенности : 4:2:0
Битовая глубина : 8 бит
Тип развёртки : Прогрессивная
Метод сжатия : С потерями
Бит/(Пиксели*Кадры) : 0.157
Размер потока : 654 Мбайт (88%)
Библиотека кодирования : XviD 73

Аудио
Идентификатор : 1
Формат : AC-3
Формат/Информация : Audio Coding 3
Коммерческое название : Dolby Digital
Идентификатор кодека : 2000
Продолжительность : 1 ч. 2 м.
Вид битрейта : Постоянный
Битрейт : 192 Кбит/сек
Каналы : 2 канала
ChannelLayout : L R
Частота : 48,0 КГц
Частота кадров : 31,250 кадров/сек (1536 SPF)
Битовая глубина : 16 бит
Метод сжатия : С потерями
Размер потока : 85,6 Мбайт (12%)
Выравнивание : Разделение по промежуткам
Продолжительность промежутка : 40 мс. (1,01 видеокадр)
Время предзагрузки промежутка : 500 мс
pb.wtf



Скачать Мечте навстречу через торрент http://picplus.ru/img/1905/23/070db390.png Скачать фильм Мечте навстречу через торрент бесплантно в хорошем качестве Описание:Инопланетный звездолет, направляющийся на Землю с планеты Центурий, из-за аварии вынужден совершить аварийную посадку на Марс. ... 10 10 1
Торрент: Зарегистрирован [2019-05-23 07:42] · скачан: 9 раз
Статус: √ проверено
Размер: 744 MB
Как cкачать? Как скачать Мечте навстречу через торрент | qTorrent

% Раздел Тема Автор DL S | L
Кино СССР [ 744 MB ] Мечте навстречу [1963 СССР DVDRip-AVC от AVP Studio] AVP Studio Скачать
3 | 0
Отечественная Поп музыка (mp3) [ 120 MB ] Вирус - Навстречу мечте 2017 / MP3 / 320 kbps / Поп bober100 Скачать
1 | 0
Отечественная Поп музыка (mp3) [ 124 MB ] Вирус - Навстречу мечте 2015 / MP3 / 320 kbps / Pop Dance megatoxa Скачать
1 | 0
Eurodance, Technopop, Disco (сборники) (mp3) [ 870 MB ] VA - Навстречу мечте. Супер сборник поп музыки 2015 / MP3 / 320 kbps / pop den7z8 Скачать
1 | 0
    Дорогой пользователь! Огромная просьба, поблагодарите релизера, оцените раздачу и оставьте свои комментарий, если Вы скачали Мечте навстречу через торрент бесплатно! Внесите свою лепту в развитие PiratBit!
    Комментировать посты могут только пользователи прошедшие не сложную регистрацию
    Показать сообщения:    

    Мечте навстречу через торрент
    Скачать бесплатно Мечте навстречу
    Мечте навстречу скачать торрент
    Мечте навстречу смотреть онлайн
    Cкачать фильм Мечте навстречу бесплатно
    Мечте навстречу скачать торрент в хорошем качестве
    Мечте навстречу смотреть онлайн бесплатно в хорошем качестве


    Вы не можете начинать темы
    Вы не можете отвечать на сообщения
    Вы не можете редактировать свои сообщения
    Вы не можете удалять свои сообщения
    Вы не можете голосовать в опросах
    Вы не можете прикреплять файлы к сообщениям
    Вы можете скачивать файлы