Ссылка на приватное зеркало всего за 1$. Внимание количество ограничено!!!

iTunes

1+1

iTunes

мы

WEB-DL

1

iTunes

Чернобыль

iTunes

Ральф против интернета

Лицензия

ПШазам

Лицензия

Оно 2

Лицензия

30
pack

Вам бонус

ВАЖНО

!!Акция!!

Alien_RageХит недели

RePack

Resident Evil 21

ИГРА 18+

pack

RePack

jed

!!Акция!!

Alien_Rage

RePack

fifa19

RePack

Assassins Creed: Odyssey

RePack

NEED FOR SPEED™ PAYBACK

3 сезон

9 сезон

Бесстыжие 9 сезон

Все сериалы

все сериалы на PB.wtf

RePack

FAR CRY 5
Ребята, катастрофически не хватает 1900р. для оплаты серверов за Октябрь (всвязи с блокировками трафик упал в 3 раза), 1-2р., выручайте.
  

1+1: Голливудская история / The Upside (Нил Бёргер) [2018, драма, комедия, BDRip-AVC] Дубляж [Лицензия] pb.wtf

1+1: Голливудская история через торрент pb.wtf

Размер: 2.53 GB | Добавлен: 6 мес. назад | Торрент скачан:248 раз
Скачать  

23-05-2019 08:04 1+1: Голливудская история Скачать торрент  

1+1: Голливудская история / The Upside««Одинокий миллиардер в поисках острых ощущений»»

Год выпуска: 2018
Страна: США
Жанр: драма, комедия
Продолжительность: 02:05:50
Перевод: Дублированный | [Лицензия]
Субтитры: Русские (полные), Английские (полные, SDH)
Режиссер: Нил Бёргер
В ролях:

Брайан Крэнстон (Philip Lacasse), Кевин Харт (Dell Scott), Николь Кидман (Yvonne Pendleton), Эйджа Наоми Кинг (Latrice), Джахи Диалло Уинстон (Anthony), Женевьева Энджелсон (Jenny), Голшифте Фарахани (Maggie), Тейт Донован (Carter), Джулианна Маргулис (Lily), Сюзанн Савой (Charlotte), Майкл Куинлэн (Jack), Джеймс Георгиадес (Police Sergeant)
Описание:
Пентхаус в Нью Йорке, целый гараж коллекционных автомобилей и миллиарды скучающих президентов на банковском счету. Если есть тот, кто готов рискнуть состоянием ради минуты подлинного счастья, найдется и тот, кто ему в этом поможет.
Рейтинг:

MPAA: PG-13 - Детям до 13 лет просмотр не желателен
Качество: BDRip-AVC
Формат: MKV
Видео: 1024x554 (1.85:1), 23,976 fps, x264 ~1 978 Кбит/сек, 0.145 bit/pixel
Аудио #1: 48 kHz, AC3 Dolby Digital, 3/2 (L,C,R,l,r) + LFE ch, ~448.00 kbps avg | RUS (Лицензия)
Аудио #2: 48 kHz, AC3 Dolby Digital, 3/2 (L,C,R,l,r) + LFE ch, ~448.00 kbps avg | ENG
Навигация по главам: есть

Общее
Уникальный идентификатор : 226992602672300291894132612823596074200 (0xAAC52F605C5761D59B79240BDE3304D8)
Полное имя : F:OlLanDGroupThe.Upside.2019.BDRip(AVC).OllanDGroup.mkv
Формат : Matroska
Версия формата : Version 4 / Version 2
Размер файла : 2,53 Гбайт
Продолжительность : 2 ч. 5 м.
Общий поток : 2875 Кбит/сек
Название фильма : The Upside 2019 #TorpedoUK#
Дата кодирования : UTC 2019-05-22 09:41:54
Программа кодирования : mkvmerge v29.0.0 ('Like It Or Not') 64-bit
Библиотека кодирования : libebml v1.3.6 + libmatroska v1.4.9

Видео
Идентификатор : 1
Формат : AVC
Формат/Информация : Advanced Video Codec
Профиль формата : High@L4.1
Параметр CABAC формата : Да
Параметр ReFrames формата : 10 кадров
Идентификатор кодека : V_MPEG4/ISO/AVC
Продолжительность : 2 ч. 5 м.
Битрейт : 1978 Кбит/сек
Ширина : 1024 пикселя
Высота : 554 пикселя
Соотношение сторон : 1,85:1
Режим частоты кадров : Постоянный
Частота кадров : 23,976 (24000/1001) кадра/сек
Цветовое пространство : YUV
Субдискретизация насыщенности : 4:2:0
Битовая глубина : 8 бит
Тип развёртки : Прогрессивная
Бит/(Пиксели*Кадры) : 0.145
Размер потока : 1,74 Гбайт (69%)
Заголовок : Torpedo
Библиотека кодирования : x264 core 146 r2538 121396c
Настройки программы : cabac=1 / ref=10 / deblock=1:-3:-3 / analyse=0x3:0x113 / me=umh / subme=11 / psy=1 / psy_rd=1.00:0.03 / mixed_ref=1 / me_range=48 / chroma_me=1 / trellis=2 / 8x8dct=1 / cqm=0 / deadzone=21,11 / fast_pskip=1 / chroma_qp_offset=-3 / threads=6 / lookahead_threads=1 / sliced_threads=0 / nr=0 / decimate=1 / interlaced=0 / bluray_compat=0 / constrained_intra=0 / bframes=11 / b_pyramid=2 / b_adapt=2 / b_bias=0 / direct=3 / weightb=1 / open_gop=0 / weightp=2 / keyint=240 / keyint_min=23 / scenecut=40 / intra_refresh=0 / rc_lookahead=40 / rc=2pass / mbtree=0 / bitrate=1978 / ratetol=1.0 / qcomp=0.60 / qpmin=0 / qpmax=69 / qpstep=4 / cplxblur=20.0 / qblur=0.5 / vbv_maxrate=50000 / vbv_bufsize=62500 / nal_hrd=none / filler=0 / ip_ratio=1.40 / pb_ratio=1.30 / aq=1:1.00
Язык : English
Default : Да
Forced : Нет

Аудио #1
Идентификатор : 2
Формат : AC-3
Формат/Информация : Audio Coding 3
Расширение режима : CM (complete main)
Параметр Endianness формата : Big
Идентификатор кодека : A_AC3
Продолжительность : 2 ч. 5 м.
Вид битрейта : Постоянный
Битрейт : 448 Кбит/сек
Каналы : 6 каналов
Расположение каналов : Front: L C R, Side: L R, LFE
Частота : 48,0 КГц
Частота кадров : 31,250 кадров/сек (1536 spf)
Битовая глубина : 16 бит
Метод сжатия : С потерями
Размер потока : 403 Мбайт (16%)
Заголовок : DUB [License]
Язык : Russian
Default : Да
Forced : Нет

Аудио #2
Идентификатор : 3
Формат : AC-3
Формат/Информация : Audio Coding 3
Расширение режима : CM (complete main)
Параметр Endianness формата : Big
Идентификатор кодека : A_AC3
Продолжительность : 2 ч. 5 м.
Вид битрейта : Постоянный
Битрейт : 448 Кбит/сек
Каналы : 6 каналов
Расположение каналов : Front: L C R, Side: L R, LFE
Частота : 48,0 КГц
Частота кадров : 31,250 кадров/сек (1536 spf)
Битовая глубина : 16 бит
Метод сжатия : С потерями
Размер потока : 403 Мбайт (16%)
Заголовок : [Original]
Язык : English
Default : Нет
Forced : Нет

Текст #1
Идентификатор : 4
Формат : UTF-8
Идентификатор кодека : S_TEXT/UTF8
Идентификатор кодека/Информация : UTF-8 Plain Text
Продолжительность : 2 ч. 4 м.
Битрейт : 69 бит/сек
Count of elements : 1540
Размер потока : 63,2 Кбайт (0%)
Заголовок : Full
Язык : Russian
Default : Нет
Forced : Нет

Текст #2
Идентификатор : 5
Формат : UTF-8
Идентификатор кодека : S_TEXT/UTF8
Идентификатор кодека/Информация : UTF-8 Plain Text
Продолжительность : 1 ч. 57 м.
Битрейт : 56 бит/сек
Count of elements : 1852
Размер потока : 48,9 Кбайт (0%)
Заголовок : Full
Язык : English
Default : Нет
Forced : Нет

Текст #3
Идентификатор : 6
Формат : UTF-8
Идентификатор кодека : S_TEXT/UTF8
Идентификатор кодека/Информация : UTF-8 Plain Text
Продолжительность : 1 ч. 57 м.
Битрейт : 56 бит/сек
Count of elements : 1852
Размер потока : 48,7 Кбайт (0%)
Заголовок : SDH
Язык : English
Default : Нет
Forced : Нет

Меню
00:00:00.000 : en:Глава 01
00:09:33.907 : en:Глава 02
00:23:35.122 : en:Глава 03
00:36:28.728 : en:Глава 04
00:55:40.754 : en:Глава 05
01:17:07.790 : en:Глава 06
01:33:05.246 : en:Глава 07
01:46:45.399 : en:Глава 08
01:58:26.808 : en:Глава 09
pb.wtf



Скачать 1+1: Голливудская история через торрент https://b.radikal.ru/b09/1905/2a/a83c314ef580.png Скачать фильм 1+1: Голливудская история через торрент бесплантно в хорошем качестве Описание: Пентхаус в Нью Йорке, целый гараж коллекционных автомобилей и миллиарды скучающих президентов на банковском счету. Если есть тот, ... 10 10 6
Торрент: Зарегистрирован [2019-05-23 08:04] · скачан: 248 раз
Статус: √ проверено
Размер: 2.53 GB
Как cкачать? Как скачать 1+1: Голливудская история через торрент | qTorrent

% Раздел Тема Автор DL S | L
Фильмы 2017 [DVDrip, WEB-DLRip, HDrip] (DUB, MVO) [ 1.47 GB ] 1+1: Голливудская история / The Upside [2017 WEB-DLRip] bober100 Скачать
2 | 0
Фильмы [HD 720p, 1080p] (Хороший звук DUB, MVO) [ 13.76 GB ] 1+1: Голливудская история / The Upside [2018 BDRip 1080p] [] sheker187 Скачать
2 | 0
Фильмы 2017 [DVDrip, WEB-DLRip, HDrip] (DUB, MVO) [ 2.18 GB ] 1+1: Голливудская история / The Upside [2017 BDRip] - [] Twi7ter Скачать
6 | 0
Фильмы (WEB-DL 720p, 1080p) [ 5.24 GB ] 1+1: Голливудская история / The Upside [2017 WEB-DL 1080p] bober100 Скачать
3 | 0
Фильмы 2017 [DVDrip, WEB-DLRip, HDrip] (DUB, MVO) [ 1.46 GB ] 1+1: Голливудская история / The Upside [2017 BDRip] - [] Twi7ter Скачать
11 | 0
Фильмы 2017 [DVDrip, WEB-DLRip, HDrip] (DUB, MVO) [ 2.18 GB ] 1+1: Голливудская история / The Upside [2017 WEB-DLRip] bober100 Скачать
2 | 0
Фильмы (WEB-DL 720p, 1080p) [ 4.27 GB ] 1+1: Голливудская история / The Upside [2017 WEB-DL 720p] bober100 Скачать
1 | 0

28-11-2019 20:33  

Отключить всю рекламу на сайте

23-05-2019 09:39 1+1: Голливудская история Скачать торрент  

Благодарю)pb.wtf



23-05-2019 17:16 1+1: Голливудская история Скачать торрент  

А в чем смысл? Они просто взяли французскую версию и сделали американскую? WTFpb.wtf



    Дорогой пользователь! Огромная просьба, поблагодарите релизера, оцените раздачу и оставьте свои комментарий, если Вы скачали 1+1: Голливудская история через торрент бесплатно! Внесите свою лепту в развитие PiratBit!
    Комментировать посты могут только пользователи прошедшие не сложную регистрацию
    Показать сообщения:    

    1+1: Голливудская история через торрент
    Скачать бесплатно 1+1: Голливудская история
    1+1: Голливудская история скачать торрент
    1+1: Голливудская история смотреть онлайн
    Cкачать фильм 1+1: Голливудская история бесплатно
    1+1: Голливудская история скачать торрент в хорошем качестве
    1+1: Голливудская история смотреть онлайн бесплатно в хорошем качестве


    Вы не можете начинать темы
    Вы не можете отвечать на сообщения
    Вы не можете редактировать свои сообщения
    Вы не можете удалять свои сообщения
    Вы не можете голосовать в опросах
    Вы не можете прикреплять файлы к сообщениям
    Вы можете скачивать файлы