MEGA SALE -50% FORZA HORIZON 4 ULTIMATE+ВСЕ DLC+ОНЛАЙН всего за 599р. 299 руб. (супер цена). Внимание количество ограничено!!!

iTunes

1+1

iTunes

мы

iTunes

1

iTunes

Чернобыль

1 сезон

Ральф против интернета

Лицензия

ПШазам

Лицензия

Игра престолов

Лицензия

30
pack

ВАЖНО

!!Акция!!

Alien_RageХит недели

RePack

Resident Evil 21

ИГРА 18+

pack

RePack

Metro:Exodus

!!Акция!!

Alien_Rage

RePack

fifa19

RePack

Assassins Creed: Odyssey

RePack

NEED FOR SPEED™ PAYBACK

3 сезон

9 сезон

Бесстыжие 9 сезон

Все сериалы

все сериалы на PB.wtf

RePack

FAR CRY 5
Ребята, катастрофически не хватает 7730р. для оплаты серверов за ИЮЛЬ (всвязи с блокировками трафик упал в 3 раза), 1-2р., выручайте.
  

Вилли и крутые тачки / Wheely (Исри Абдул Халим / Yusry Abd Halim) [2018, мультфильм, комедия, приключения, семейный, WEBRip 1080p] [Dub] (IVI) pb.wtf

Вилли и крутые тачки через торрент pb.wtf

Раздают: 3 [ 0 KB/s ]
Размер: 3.54 GB | Добавлен: 2 мес. 27 д. назад | Торрент скачан:124 раза
Скачать  

24-05-2019 05:54 Вилли и крутые тачки Скачать торрент  

Вилли и крутые тачки / Wheely Страна: Малайзия
Жанр: мультфильм, комедия, приключения, семейный
Год выпуска: 2018
Продолжительность: 01:29:53
Перевод: Профессиональный (дублированный) | ivi
Субтитры: нет

Режиссер: Исри Абдул Халим / Yusry Abd Halim
В ролях: Барбара Гудсон, Крис Джай Алекс, Оги Бэнкс, Гэвин Яп, Билл Дж. Готтлиб, Рэймонд Орта, Джо Мюррэй, Дионг Чхэ Лиан, Тамика Уайт, Томас Пэнг
Описание: Вилли — трижды чемпион по уличным гонкам в Гаскет-Сити, готовится к главному соревнованию в своей жизни. Весь мир у его колёс! Но в решающем заезде он не справился с управлением и упал в глубокую реку. Вилли приходиться стать обычным такси и лишь иногда соревноваться с обычными городскими машинами. Но после неожиданного столкновения с прекрасной итальянской машинкой Беллой, он начинает понимать, что помимо жажды скорости в жизни есть более важные вещи…

Качество видео: WEBRip 1080p
Формат видео: MKV

Видео: 1920x1012 (1.897), 24.000 fps, AVC, 5116 Кбит/сек
Аудио: 48.0 KHz, AAC LC, 2 ch ~512 kbps
Сэмпл
Формат                                   : Matroska
Версия формата : Version 4
Размер файла : 3,54 Гбайт
Продолжительность : 1 ч. 29 м.
Общий поток : 5631 Кбит/сек
Дата кодирования : UTC 2019-05-22 07:18:44
Программа кодирования : mkvmerge v34.0.0 ('Sight and Seen') 64-bit
Библиотека кодирования : libebml v1.3.7 + libmatroska v1.5.0

Видео
Идентификатор : 1
Формат : AVC
Формат/Информация : Advanced Video Codec
Профиль формата : High@L4
Настройки формата : CABAC / 4 Ref Frames
Параметр CABAC формата : Да
Параметр RefFrames формата : 4 кадра
Идентификатор кодека : V_MPEG4/ISO/AVC
Продолжительность : 1 ч. 29 м.
Битрейт : 5116 Кбит/сек
Ширина : 1920 пикселей
Высота : 1012 пикселей
Соотношение сторон : 1,897
Режим частоты кадров : Постоянный
Частота кадров : 24,000 кадра/сек
Цветовое пространство : YUV
Субдискретизация насыщенности : 4:2:0
Битовая глубина : 8 бит
Тип развёртки : Прогрессивная
Бит/(Пиксели*Кадры) : 0.110
Размер потока : 3,21 Гбайт (91%)
Default : Да
Forced : Нет

Аудио
Идентификатор : 2
Формат : AAC LC
Формат/Информация : Advanced Audio Codec Low Complexity
Идентификатор кодека : A_AAC-2
Продолжительность : 1 ч. 29 м.
Битрейт : 512 Кбит/сек
Каналы : 2 канала
ChannelLayout : L R
Частота : 48,0 КГц
Частота кадров : 46,875 кадров/сек (1024 SPF)
Метод сжатия : С потерями
Размер потока : 329 Мбайт (9%)
Язык : Russian
Default : Да
Forced : Нет
скриншот  скриншот  скриншот  
pb.wtf



Скачать Вилли и крутые тачки через торрент https://i4.imageban.ru/out/2019/05/24/fe0a723fe579fd846ccb8e7608175e30.jpg Скачать фильм Вилли и крутые тачки через торрент бесплантно в хорошем качестве Описание: Вилли — трижды чемпион по уличным гонкам в Гаскет-Сити, готовится к главному соревнованию в своей жизни. Весь мир у его колёс! Но ... 9 10 3
Торрент: Зарегистрирован [2019-05-24 05:54] · скачан: 124 раз
Статус: √ проверено
Размер: 3.54 GB
Как cкачать? Как скачать Вилли и крутые тачки через торрент | qTorrent

% Раздел Тема Автор DL S | L
T Зарубежные Мультфильмы (WEB-DL 720p, 1080p) [ 2.71 GB ] Вилли и крутые тачки / Wheely [2018 мультфильм WEB-DLRip 720p] [Line] killermax2013 Скачать
6 | 0


>> Регистрируемся здесь <<






Отзывы и комментарии о схеме читаем и пишем здесь: ---> Отзывы и комментарии о схеме

Новые благодарочки в телеграм довольных пользователей:
скриншот   скриншот   скриншот   скриншот   скриншот
    Дорогой пользователь! Огромная просьба, поблагодарите релизера, оцените раздачу и оставьте свои комментарий, если Вы скачали Вилли и крутые тачки через торрент бесплатно! Внесите свою лепту в развитие PiratBit!
    Комментировать посты могут только пользователи прошедшие не сложную регистрацию
    Показать сообщения:    

    Вилли и крутые тачки через торрент
    Скачать бесплатно Вилли и крутые тачки
    Вилли и крутые тачки скачать торрент
    Вилли и крутые тачки смотреть онлайн
    Cкачать фильм Вилли и крутые тачки бесплатно
    Вилли и крутые тачки скачать торрент в хорошем качестве
    Вилли и крутые тачки смотреть онлайн бесплатно в хорошем качестве


    Вы не можете начинать темы
    Вы не можете отвечать на сообщения
    Вы не можете редактировать свои сообщения
    Вы не можете удалять свои сообщения
    Вы не можете голосовать в опросах
    Вы не можете прикреплять файлы к сообщениям
    Вы можете скачивать файлы