новый адрес
Мега распродажа FORZA HORIZON 4 ULTIMATE+ВСЕ DLC+ОНЛАЙН всего за 499р. 349 руб. (супер цена). Внимание количество ограничено!!!

iTunes

1+1

iTunes

мы

iTunes

1

iTunes

Чернобыль

iTunes

Ральф против интернета

Лицензия

ПШазам

Лицензия

Оно 2

Лицензия

30
pack

ВАЖНО

!!Акция!!

Alien_RageХит недели

RePack

Resident Evil 21

ИГРА 18+

pack

RePack

Metro:Exodus

!!Акция!!

Alien_Rage

RePack

fifa19

RePack

Assassins Creed: Odyssey

RePack

NEED FOR SPEED™ PAYBACK

3 сезон

9 сезон

Бесстыжие 9 сезон

Все сериалы

все сериалы на PB.wtf

RePack

FAR CRY 5
Ребята, катастрофически не хватает 1900р. для оплаты серверов за Октябрь (всвязи с блокировками трафик упал в 3 раза), 1-2р., выручайте.
  

Мелодии Дунаевского (Эрик Пырьев) [1963, СССР, музыка, SATRip от AVP Studio] pb.wtf

Мелодии Дунаевского через торрент pb.wtf

Раздают: 2 [ 19 KB/s ] Качают: 1 [ 24 KB/s ]
Размер: 1.09 GB | Добавлен: 5 мес. 27 д. назад | Торрент скачан:7 раз
Скачать  

24-05-2019 07:28 Мелодии Дунаевского Скачать торрент  

Мелодии Дунаевского
Страна: СССР
Производство: Мосфильм

Жанр: музыка
Год выпуска: 1963
Продолжительность: 01:12:44

Перевод: Не требуется
Cубтитры: нет
Оригинальная аудиодорожка: русский

Режиссер: Эрик Пырьев

В ролях:
Любовь Орлова, Марина Ладынина, Николай Черкасов, Игорь Ильинский, Леонид Утёсов, Сергей Лукьянов, Борис Андреев, Григорий Ярон, Павел Оленев, Татьяна Шмыга, Клара Лучко, Марк Бернес, Лионелла Пырьева, Владимир Шишкин, Николай Каширский...
Об актёрах подробней

Описание:
Музыкальная киномонография.
В фильме использованы фрагменты художественных картин и материалы Госфильмофонда РФ. Помимо перечисленных актеров о композиторе рассказывают: режиссеры Григорий Александров и Иван Пырьев, поэты-песенники Михаил Матусовский и Василий Лебедев-Кумач.

Исходник: DVB
Качество видео: SATRip
Формат видео: AVI

Видео: 704x528 (4:3), 23,976 кадров/сек, XviD ~ 1944 kbps avg, 0.209 bit/pixel
Аудио: 48 kHz, Dolby Digital AC3 2.0, 192 kbps

Раздача от:
Общее
Полное имя : Melodii.Dunaevskogo.1963.SATRip_[New-team]_by_AVP_Studio.avi
Формат : AVI
Формат/Информация : Audio Video Interleave
Размер файла : 1,09 Гбайт
Продолжительность : 1 ч. 12 м.
Общий поток : 2146 Кбит/сек
Программа кодирования : VirtualDubMod 1.5.10.3 | www.virtualdub-fr.org || (build 2550/release)
Библиотека кодирования : VirtualDubMod build 2550/release

Видео
Идентификатор : 0
Формат : MPEG-4 Visual
Профиль формата : Advanced Simple@L5
Настройки формата : BVOP1 / Custom Matrix
Параметр BVOP формата : 1
Параметр QPel формата : Нет
Параметр GMC формата : Без точки перехода
Параметр матрицы формата : Выборочная
Идентификатор кодека : XVID
Идентификатор кодека/Подсказка : XviD
Продолжительность : 1 ч. 12 м.
Битрейт : 1944 Кбит/сек
Ширина : 704 пикселя
Высота : 528 пикселей
Соотношение сторон : 4:3
Частота кадров : 25,000 кадров/сек
Цветовое пространство : YUV
Субдискретизация насыщенности : 4:2:0
Битовая глубина : 8 бит
Тип развёртки : Прогрессивная
Метод сжатия : С потерями
Бит/(Пиксели*Кадры) : 0.209
Размер потока : 1011 Мбайт (91%)
Библиотека кодирования : XviD 73

Аудио
Идентификатор : 1
Формат : AC-3
Формат/Информация : Audio Coding 3
Коммерческое название : Dolby Digital
Идентификатор кодека : 2000
Продолжительность : 1 ч. 12 м.
Вид битрейта : Постоянный
Битрейт : 192 Кбит/сек
Каналы : 2 канала
ChannelLayout : L R
Частота : 48,0 КГц
Частота кадров : 31,250 кадров/сек (1536 SPF)
Битовая глубина : 16 бит
Метод сжатия : С потерями
Размер потока : 99,9 Мбайт (9%)
Выравнивание : Разделение по промежуткам
Продолжительность промежутка : 40 мс. (1,00 видеокадр)
Время предзагрузки промежутка : 500 мс.
pb.wtf



Скачать Мелодии Дунаевского через торрент http://picplus.ru/img/1905/24/9dd838dd.png Скачать фильм Мелодии Дунаевского через торрент бесплантно в хорошем качестве Описание:Музыкальная киномонография.В фильме использованы фрагменты художественных картин и материалы Госфильмофонда РФ. Помимо ... 5 10 1
Info! Золотая раздача, скачанное не засчитывается.
Торрент: Зарегистрирован [2019-05-24 07:28] · скачан: 7 раз
Статус: √ проверено
Размер: 1.09 GB
Как cкачать? Как скачать Мелодии Дунаевского через торрент | qTorrent

% Раздел Тема Автор DL S | L
Кино СССР [ 1.09 GB ] Мелодии Дунаевского [1963 СССР музыка SATRip-AVC от AVP Studio] AVP Studio Скачать
4 | 0


>> Регистрируемся здесь <<






Отзывы и комментарии о схеме читаем и пишем здесь: ---> Отзывы и комментарии о схеме

Новые благодарочки в телеграм довольных пользователей:
скриншот   скриншот   скриншот   скриншот   скриншот
    Дорогой пользователь! Огромная просьба, поблагодарите релизера, оцените раздачу и оставьте свои комментарий, если Вы скачали Мелодии Дунаевского через торрент бесплатно! Внесите свою лепту в развитие PiratBit!
    Комментировать посты могут только пользователи прошедшие не сложную регистрацию
    Показать сообщения:    

    Мелодии Дунаевского через торрент
    Скачать бесплатно Мелодии Дунаевского
    Мелодии Дунаевского скачать торрент
    Мелодии Дунаевского смотреть онлайн
    Cкачать фильм Мелодии Дунаевского бесплатно
    Мелодии Дунаевского скачать торрент в хорошем качестве
    Мелодии Дунаевского смотреть онлайн бесплатно в хорошем качестве


    Вы не можете начинать темы
    Вы не можете отвечать на сообщения
    Вы не можете редактировать свои сообщения
    Вы не можете удалять свои сообщения
    Вы не можете голосовать в опросах
    Вы не можете прикреплять файлы к сообщениям
    Вы можете скачивать файлы