Ссылка на приватное зеркало всего за 1$. Внимание количество ограничено!!!

OK

1+1

iTunes

мы

OK

1

WEB-DLRip

Джокер

Пифагор

Ведьмак / The Witcher сериал

Лицензия

ПШазам

ОК

Оно 2

iTunes

30
pack

Вам бонус

ВАЖНО

!!Акция!!

Alien_RageХит недели

RePack

Resident Evil 21

ИГРА 18+

pack

RePack

jed

!!Акция!!

Alien_Rage

RePack

fifa19

RePack

Assassins Creed: Odyssey

RePack

NEED FOR SPEED™ PAYBACK

4 сезон

9 сезон

Бесстыжие 9 сезон

Все сериалы

все сериалы на PB.wtf

RePack

FAR CRY 5
  

Экскурсия / Excursion (Мартин Гроф / Martin Grof) [2019, фантастика, триллер, детектив, WEB-DL 1080p] [MVO] (HDRezka Studio) pb.wtf

Экскурсия через торрент pb.wtf

Раздают: 1 [ 0 KB/s ]
Размер: 5.66 GB | Добавлен: 7 мес. назад | Торрент скачан:180 раз
Скачать  

24-05-2019 16:12 Экскурсия Скачать торрент  

Экскурсия / Excursion Страна: Великобритания
Жанр: фантастика, триллер, детектив
Год выпуска: 2019
Продолжительность: 01:24:27
Перевод: Профессиональный (многоголосый закадровый) | HDRezka Studio
Субтитры: eng

Режиссер: Мартин Гроф / Martin Grof
В ролях: Джонни Миндлин, Ричард Канал, Софи Уилсон, Джип Тёрнер, Джерил Бёрджесс
Описание: События разворачиваются в современном Лондоне. Томас — путешественник во времени и член коммунистической партии Чехословакии, который в 80-х годах прошлого столетия был отправлен в будущее, чтобы убедиться в том, что социализм продолжает процветать. Когда он встречается с самим собой в будущем и получает информацию о том, что случилось на планете в последние десятилетия, парень быстро осознает масштабы произошедшей катастрофы, которая привела к упадку социализма. И теперь Томасу предстоит сделать все возможное, чтобы исправить ситуацию...

Качество видео: WEB-DL 1080p
Формат видео: MKV

Видео: MPEG-4 AVC, 9176 Кбит/с, 1920x1080
Аудио 1: 48 kHz, AC3 Dolby Digital, 2/0 (L,R) ch, ~192 kbps | rus
Аудио 2: 48 kHz, E-AC3 Dolby Digital, 2/0 (L,R) ch, ~224 kbps | eng
General
Unique ID : 7883686144759276478650725990626955230 (0x5EE57BC9E3DCBA7BEC9F20E25A70FDE)
Complete name : G:\Excursion.2019.WEB-DL.1080p.mkv
Format : Matroska
Format version : Version 4 / Version 2
File size : 5.66 GiB
Duration : 1 h 24 min
Overall bit rate : 9 594 kb/s
Encoded date : UTC 2019-05-20 22:30:16
Writing application : mkvmerge v20.0.0 ('I Am The Sun') 64-bit
Writing library : libebml v1.3.5 + libmatroska v1.4.8

Video
ID : 1
Format : AVC
Format/Info : Advanced Video Codec
Format profile : High@L4
Format settings : CABAC / 4 Ref Frames
Format settings, CABAC : Yes
Format settings, RefFrames : 4 frames
Codec ID : V_MPEG4/ISO/AVC
Duration : 1 h 24 min
Bit rate mode : Constant
Bit rate : 9 176 kb/s
Nominal bit rate : 10 000 kb/s
Width : 1 920 pixels
Height : 1 080 pixels
Display aspect ratio : 16:9
Frame rate mode : Constant
Frame rate : 25.000 FPS
Standard : PAL
Color space : YUV
Chroma subsampling : 4:2:0
Bit depth : 8 bits
Scan type : Progressive
Bits/(Pixel*Frame) : 0.177
Stream size : 5.41 GiB (96%)
Language : English
Default : Yes
Forced : No
Color range : Limited
Color primaries : BT.709
Transfer characteristics : BT.709
Matrix coefficients : BT.709

Audio #1
ID : 2
Format : AC-3
Format/Info : Audio Coding 3
Codec ID : A_AC3
Duration : 1 h 24 min
Bit rate mode : Constant
Bit rate : 192 kb/s
Channel(s) : 2 channels
Channel positions : Front: L R
Sampling rate : 48.0 kHz
Frame rate : 31.250 FPS (1536 SPF)
Bit depth : 16 bits
Compression mode : Lossy
Stream size : 116 MiB (2%)
Title : MVO HDRezka Studio
Language : Russian
Service kind : Complete Main
Default : Yes
Forced : No

Audio #2
ID : 3
Format : E-AC-3
Format/Info : Enhanced Audio Coding 3
Codec ID : A_EAC3
Duration : 1 h 24 min
Bit rate mode : Constant
Bit rate : 224 kb/s
Channel(s) : 2 channels
Channel positions : Front: L R
Sampling rate : 48.0 kHz
Frame rate : 187.500 FPS (256 SPF)
Compression mode : Lossy
Stream size : 135 MiB (2%)
Language : English
Service kind : Complete Main
Default : No
Forced : No

Text
ID : 4
Format : UTF-8
Codec ID : S_TEXT/UTF8
Codec ID/Info : UTF-8 Plain Text
Duration : 1 h 17 min
Bit rate : 49 b/s
Count of elements : 1103
Stream size : 28.2 KiB (0%)
Language : English
Default : No
Forced : No
скриншот  скриншот  скриншот  
pb.wtf



Скачать Экскурсия через торрент https://i6.imageban.ru/out/2019/05/22/30ea34458214147ca89541c100088727.jpg Скачать фильм Экскурсия через торрент бесплантно в хорошем качестве Описание: События разворачиваются в современном Лондоне. Томас — путешественник во времени и член коммунистической партии Чехословакии, ... 7.7 10 3
Торрент: Зарегистрирован [2019-05-24 16:12] · скачан: 180 раз
Статус: √ проверено
Размер: 5.66 GB
Как cкачать? Как скачать Экскурсия через торрент | qTorrent

% Раздел Тема Автор DL S | L
Фильмы 2019-2020 [DVDrip, WEB-DLRip, HDrip] (DUB, MVO) [ 1.46 GB ] Экскурсия / Excursion [2019 WEB-DLRip] [MVO] killermax2013 Скачать
4 | 0
Гонзо [ 1.63 GB ] Анальные Экскурсии 2 / Anal Excursion 2 [2016 Anal Gonzo Threesomes DP Interracial WEB-DLRip Перевод отсутствует. Оригинал] Pir@tya2010 Скачать
1 | 0
Паки полных порно фильмов [ 14.87 GB ] Анальные Экскурсии 123456 / Anal Excursions 1-6 [2005-2006 Anal DP DAP Double Blowjob Threesome Оригинал] Pir@tya2010 Скачать
1 | 0

28-11-2019 20:33  

Отключить всю рекламу на сайте

27-05-2019 02:43 Экскурсия Скачать торрент  

Убогая антисоветчина.
Смотреть не вижу никакого смысла, даже не посмеешься.pb.wtf



    Дорогой пользователь! Огромная просьба, поблагодарите релизера, оцените раздачу и оставьте свои комментарий, если Вы скачали Экскурсия через торрент бесплатно! Внесите свою лепту в развитие PiratBit!
    Комментировать посты могут только пользователи прошедшие не сложную регистрацию
    Показать сообщения:    

    Экскурсия через торрент
    Скачать бесплатно Экскурсия
    Экскурсия скачать торрент
    Экскурсия смотреть онлайн
    Cкачать фильм Экскурсия бесплатно
    Экскурсия скачать торрент в хорошем качестве
    Экскурсия смотреть онлайн бесплатно в хорошем качестве


    Вы не можете начинать темы
    Вы не можете отвечать на сообщения
    Вы не можете редактировать свои сообщения
    Вы не можете удалять свои сообщения
    Вы не можете голосовать в опросах
    Вы не можете прикреплять файлы к сообщениям
    Вы можете скачивать файлы