Ссылка на приватное зеркало нашего сайта всего за 1$. Внимание количество ограничено!!!

2 сезон

iTunes

1 сезон

1

2 сезон

2 сезон

iTunes

1 сезон

RePack

30

Новинка

ВАЖНО

ИГРА 18+

pack

RePack

MK11
pack

Забери бонус

RePack

jed

!!Акция!!

Alien_Rage

RePack

fifa19

RePack

Assassins Creed: Odyssey

RePack

NEED FOR SPEED™ PAYBACK

4 сезон

9 сезон

Бесстыжие 9 сезон

Все сериалы

все сериалы на PB.wtf

RePack

FAR CRY 5
  

Джентльмен Джек / Gentleman Jack / Сезон: 1 / Серии: 1-8 из 8 (Сара Хардинг, Дженнифер Перротт, Салли Уэйнрайт) [2019, драма, WEB-DL 720p] MVO [TVShows] pb.wtf

Джентльмен Джек через торрент pb.wtf

Размер: 14.98 GB | Добавлен: 1 год 5 мес. назад | Торрент скачан:12 раз
Скачать  

24-05-2019 17:35 Джентльмен Джек Скачать торрент  

Джентльмен Джек / Gentleman Jack Год выпуска: 2019
Страна: Великобритания США
Жанр: драма
Продолжительность: ~01:00:00 серия
Перевод: Профессиональный (многоголосый) | TVShows
Субтитры: английские

Режиссер: Сара Хардинг, Дженнифер Перротт, Салли Уэйнрайт

rating


В ролях:

Сюранна Джоунс, Джо Армстронг, Джессика Бэглоу, Амелия Баллмор, Рози Кавальеро, Стефани Коул, Питер Дэвисон, Шон Дули

Описание:

Сюжет повествует об английской аристократке Энн Листер (1791 — 1840). Её считают «первой открытой лесбиянкой». Заядлая путешественница и альпинистка, мисс Листер сама управляла огромным поместьем, вела откровенный дневник и начисто отметала «подобающую леди» модель поведения, за что её называли «джентльменом Джеком»…

Качество: WEB-DL 720p
Формат: MKV

Видео: 1280x720 (16:9), 23.976 fps, MPEG-4 AVC ~3 500 kbps avg
Аудио#1: 48.0 kHz, AC3 Dolby Digital, 3/2 (L,C,R,l,r) + LFE ch, ~384 kbps | RUS / MVO
Аудио#2: 48.0 kHz, Enhanced Audio Coding 3, 3/2 (L,C,R,l,r) + LFE ch, ~640 kbps | ENG
скриншот  скриншот  скриншот  

Общее
Уникальный идентификатор : 286399061770843114696937379899001204681 (0xD77673F1F7CA6B288C962B93B1AEEFC9)
Полное имя : D:\Gentleman.Jack.S01.720p.TVShows\Gentleman.Jack.S01E01.720p.TVShows.mkv
Формат : Matroska
Версия формата : Version 4 / Version 2
Размер файла : 1,87 Гбайт
Продолжительность : 1 ч. 0 м.
Общий поток : 4456 Кбит/сек
Дата кодирования : UTC 2019-05-03 08:06:00
Программа кодирования : mkvmerge v33.1.0 ('Primrose') 64-bit
Библиотека кодирования : libebml v1.3.7 + libmatroska v1.5.0

Видео
Идентификатор : 1
Формат : AVC
Формат/Информация : Advanced Video Codec
Профиль формата : High@L3.1
Параметр CABAC формата : Да
Параметр RefFrames формата : 4 кадра
Идентификатор кодека : V_MPEG4/ISO/AVC
Продолжительность : 1 ч. 0 м.
Вид битрейта : Постоянный
Битрейт : 3430 Кбит/сек
Номинальный битрейт : 6000 Кбит/сек
Ширина : 1280 пикселей
Высота : 720 пикселей
Соотношение сторон : 16:9
Режим частоты кадров : Постоянный
Частота кадров : 23,976 (24000/1001) кадра/сек
Цветовое пространство : YUV
Субдискретизация насыщенности : 4:2:0
Битовая глубина : 8 бит
Тип развёртки : Прогрессивная
Бит/(Пиксели*Кадры) : 0.155
Размер потока : 1,44 Гбайт (77%)
Default : Да
Forced : Нет
Цветовой диапазон : Limited
Основные цвета : BT.709
Характеристики трансфера : BT.709
Коэффициенты матрицы : BT.709

Аудио #1
Идентификатор : 2
Формат : AC-3
Формат/Информация : Audio Coding 3
Расширение режима : CM (complete main)
Параметр Endianness формата : Big
Идентификатор кодека : A_AC3
Продолжительность : 1 ч. 0 м.
Вид битрейта : Постоянный
Битрейт : 384 Кбит/сек
Каналы : 6 каналов
Расположение каналов : Front: L C R, Side: L R, LFE
Частота : 48,0 КГц
Частота кадров : 31,250 кадров/сек (1536 spf)
Метод сжатия : С потерями
Размер потока : 165 Мбайт (9%)
Заголовок : TVShows
Язык : Russian
Default : Да
Forced : Да

Аудио #2
Идентификатор : 3
Формат : E-AC-3
Формат/Информация : Audio Coding 3
Параметр Endianness формата : Big
Идентификатор кодека : A_EAC3
Продолжительность : 1 ч. 0 м.
Вид битрейта : Постоянный
Битрейт : 640 Кбит/сек
Каналы : 6 каналов
Расположение каналов : Front: L C R, Side: L R, LFE
Частота : 48,0 КГц
Частота кадров : 187,500 кадров/сек (256 spf)
Метод сжатия : С потерями
Задержка видео : 14 мс.
Размер потока : 275 Мбайт (14%)
Заголовок : Original
Язык : English
Default : Нет
Forced : Нет

Текст
Идентификатор : 4
Формат : UTF-8
Идентификатор кодека : S_TEXT/UTF8
Идентификатор кодека/Информация : UTF-8 Plain Text
Продолжительность : 59 м. 51 с.
Битрейт : 76 бит/сек
ElementCount : 1169
Размер потока : 33,5 Кбайт (0%)
Заголовок : English
Язык : English
Default : Нет
Forced : Нет

Раздача ведётся путём добавления новых серий; при каждом добавлении создаётся новый торрент.
Чтобы начать докачку новой серии, пользователям необходимо сделать следующее:
1. остановить скачивание,
2. удалить старый торрент у себя из клиента (старые серии удалять не надо),
3. скачать новый торрент и запустить его у себя в клиенте вместо старого, при этом указать клиенту путь в старую папку, куда и должно происходить скачивание новых серий.
pb.wtf



Скачать Джентльмен Джек через торрент http://d.radikal.ru/d01/1905/21/22fcb0a7dd13.jpg Скачать фильм Джентльмен Джек через торрент бесплантно в хорошем качестве Описание: Сюжет повествует об английской аристократке Энн Листер (1791 — 1840). Её считают «первой открытой лесбиянкой». Заядлая ... 10 10 2
Торрент: Зарегистрирован [2019-06-14 09:23] · скачан: 12 раз
Статус: √ проверено
Размер: 14.98 GB
Как cкачать? Как скачать Джентльмен Джек через торрент | qTorrent

% Раздел Тема Автор DL S | L
Зарубежные сериалы [ 31.36 GB ] Джентльмен Джек / Gentleman Jack / Сезон: 1 / Серии: 1-8 из 8 [2019 WEB-DL 1080p] MVO [TVShows] bober100 Скачать
1 | 0

28-11-2019 20:33  

Отключить всю рекламу на сайте

    Дорогой пользователь! Огромная просьба, поблагодарите релизера, оцените раздачу и оставьте свои комментарий, если Вы скачали Джентльмен Джек через торрент бесплатно! Внесите свою лепту в развитие PiratBit!
    Комментировать посты могут только пользователи прошедшие не сложную регистрацию
    Показать сообщения:    

    Джентльмен Джек через торрент
    Скачать бесплатно Джентльмен Джек
    Джентльмен Джек скачать торрент
    Джентльмен Джек смотреть онлайн
    Cкачать фильм Джентльмен Джек бесплатно
    Джентльмен Джек скачать торрент в хорошем качестве
    Джентльмен Джек смотреть онлайн бесплатно в хорошем качестве


    Вы не можете начинать темы
    Вы не можете отвечать на сообщения
    Вы не можете редактировать свои сообщения
    Вы не можете удалять свои сообщения
    Вы не можете голосовать в опросах
    Вы не можете прикреплять файлы к сообщениям
    Вы можете скачивать файлы