новый адрес
Ссылка на приватное зеркало всего за 1$. Внимание количество ограничено!!!

iTunes

1+1

iTunes

мы

iTunes

1

iTunes

Чернобыль

iTunes

Ральф против интернета

Лицензия

ПШазам

Лицензия

Оно 2

Лицензия

30
pack

Вам бонус

ВАЖНО

!!Акция!!

Alien_RageХит недели

RePack

Resident Evil 21

ИГРА 18+

pack

RePack

jed

!!Акция!!

Alien_Rage

RePack

fifa19

RePack

Assassins Creed: Odyssey

RePack

NEED FOR SPEED™ PAYBACK

3 сезон

9 сезон

Бесстыжие 9 сезон

Все сериалы

все сериалы на PB.wtf

RePack

FAR CRY 5
Ребята, катастрофически не хватает 1900р. для оплаты серверов за Октябрь (всвязи с блокировками трафик упал в 3 раза), 1-2р., выручайте.
  

Молчание / The Silence (Джон Р. Леонетти) [2019, Ужасы, BDRip-AVC] DUB [SDI Media] pb.wtf

Молчание через торрент pb.wtf

Раздают: 3 [ 0 KB/s ]
Размер: 1.44 GB | Добавлен: 25 д. назад | Торрент скачан:111 раз
Скачать  

24-05-2019 17:51 Молчание Скачать торрент  

Молчание / The Silence«They're Listening...»
Год выпуска: 2019
Страна: Германия
Жанр: Ужасы
Продолжительность: 01:30:49
Перевод: Дублированный | SDI Media
Субтитры: Русские (форс., полные)

Режиссер: Джон Р. Леонетти

rating


В ролях: Кирнан Шипка, Стэнли Туччи, Миранда Отто, Джон Корбетт, Сара Эбботт, Кейт Корбетт, Кайл Харрисон Брейткопф, Демпси Брайк, Билли Маклеллан, Ханна Гордон

Описание: Спелеологи вскрыли древнюю пещеру в Молдавии, тем самым выпустив на свободу странных существ, больше всего похожих на летучих мышей. Твари слепы и ориентируются только на звуки, быстро перемещаются на кожистых крыльях и довольно шустро размножаются, поэтому вскоре распространяются по всей планете. И, конечно, они весьма кровожадны.

Качество: BDRip-AVC
Формат: MKV

Видео: 1024x428 (2.40:1), 23,976 fps, x264 ~1 821 kbps avg, 0.173 bit/pixel
Аудио: 48 kHz, AC3 Dolby Digital, 3/2 (L,C,R,l,r) + LFE ch, ~448.00 kbps avg | RUS (SDI Media)
скриншот  скриншот  скриншот  

скриншот  скриншот  скриншот  

Общее
Уникальный идентификатор : 239225748380473098858477609294264973406 (0xB3F93406B6A834C6DEC254A17D7EB85E)
Полное имя : F:OlLanDGroupThe.Silence.2019.BDRip(AVC).OlLanDGroup.mkv
Формат : Matroska
Версия формата : Version 4 / Version 2
Размер файла : 1,44 Гбайт
Продолжительность : 1 ч. 30 м.
Общий поток : 2263 Кбит/сек
Название фильма : The.Silence.2019 #TorpedoUK#
Дата кодирования : UTC 2019-11-10 02:40:55
Программа кодирования : mkvmerge v29.0.0 ('Like It Or Not') 64-bit
Библиотека кодирования : libebml v1.3.6 + libmatroska v1.4.9

Видео
Идентификатор : 1
Формат : AVC
Формат/Информация : Advanced Video Codec
Профиль формата : High@L4.1
Параметр CABAC формата : Да
Параметр ReFrames формата : 10 кадров
Идентификатор кодека : V_MPEG4/ISO/AVC
Продолжительность : 1 ч. 30 м.
Битрейт : 1821 Кбит/сек
Ширина : 1024 пикселя
Высота : 428 пикселей
Соотношение сторон : 2,40:1
Режим частоты кадров : Постоянный
Частота кадров : 23,976 (24000/1001) кадра/сек
Цветовое пространство : YUV
Субдискретизация насыщенности : 4:2:0
Битовая глубина : 8 бит
Тип развёртки : Прогрессивная
Бит/(Пиксели*Кадры) : 0.173
Размер потока : 1,15 Гбайт (80%)
Библиотека кодирования : x264 core 146 r2538 121396c
Настройки программы : cabac=1 / ref=10 / deblock=1:-3:-3 / analyse=0x3:0x113 / me=umh / subme=11 / psy=1 / psy_rd=0.97:0.05 / mixed_ref=1 / me_range=48 / chroma_me=1 / trellis=2 / 8x8dct=1 / cqm=0 / deadzone=21,11 / fast_pskip=1 / chroma_qp_offset=-6 / threads=6 / lookahead_threads=1 / sliced_threads=0 / nr=0 / decimate=1 / interlaced=0 / bluray_compat=0 / constrained_intra=0 / bframes=11 / b_pyramid=2 / b_adapt=2 / b_bias=0 / direct=3 / weightb=1 / open_gop=0 / weightp=2 / keyint=240 / keyint_min=23 / scenecut=40 / intra_refresh=0 / rc_lookahead=40 / rc=2pass / mbtree=0 / bitrate=1821 / ratetol=1.0 / qcomp=0.60 / qpmin=0 / qpmax=69 / qpstep=4 / cplxblur=20.0 / qblur=0.5 / vbv_maxrate=50000 / vbv_bufsize=62500 / nal_hrd=none / filler=0 / ip_ratio=1.40 / pb_ratio=1.30 / aq=1:1.00
Язык : English
Default : Да
Forced : Нет

Аудио
Идентификатор : 2
Формат : AC-3
Формат/Информация : Audio Coding 3
Расширение режима : CM (complete main)
Параметр Endianness формата : Big
Идентификатор кодека : A_AC3
Продолжительность : 1 ч. 30 м.
Вид битрейта : Постоянный
Битрейт : 448 Кбит/сек
Каналы : 6 каналов
Расположение каналов : Front: L C R, Side: L R, LFE
Частота : 48,0 КГц
Частота кадров : 31,250 кадров/сек (1536 spf)
Битовая глубина : 16 бит
Метод сжатия : С потерями
Размер потока : 291 Мбайт (20%)
Заголовок : DUB [SDI Media]
Язык : Russian
Default : Да
Forced : Нет

Текст #1
Идентификатор : 3
Формат : UTF-8
Идентификатор кодека : S_TEXT/UTF8
Идентификатор кодека/Информация : UTF-8 Plain Text
Продолжительность : 1 ч. 29 м.
Битрейт : 5 бит/сек
Count of elements : 85
Размер потока : 3,62 Кбайт (0%)
Заголовок : Forced
Язык : Russian
Default : Да
Forced : Нет

Текст #2
Идентификатор : 4
Формат : UTF-8
Идентификатор кодека : S_TEXT/UTF8
Идентификатор кодека/Информация : UTF-8 Plain Text
Продолжительность : 1 ч. 29 м.
Битрейт : 36 бит/сек
Count of elements : 608
Размер потока : 23,9 Кбайт (0%)
Заголовок : Full
Язык : Russian
Default : Нет
Forced : Нет

Меню
00:00:00.000 : :Глава 01
00:07:22.774 : :Глава 02
00:12:34.211 : :Глава 03
00:19:55.777 : :Глава 04
00:25:23.730 : :Глава 05
00:31:16.665 : :Глава 06
00:36:58.215 : :Глава 07
00:44:31.293 : :Глава 08
00:50:23.436 : :Глава 09
00:58:07.942 : :Глава 10
01:03:35.603 : :Глава 11
01:07:56.655 : :Глава 12
01:15:00.287 : :Глава 13
01:20:15.560 : :Глава 14
01:24:45.204 : :Глава 15

pb.wtf



Скачать Молчание через торрент https://c.radikal.ru/c24/1911/33/16f270731feb.jpg Скачать фильм Молчание через торрент бесплантно в хорошем качестве Описание: Спелеологи вскрыли древнюю пещеру в Молдавии, тем самым выпустив на свободу странных существ, больше всего похожих на летучих ... 10 10 11
Торрент: Зарегистрирован [2019-11-10 03:06] · скачан: 111 раз
Статус: √ проверено
Размер: 1.44 GB
Как cкачать? Как скачать Молчание через торрент | qTorrent

% Раздел Тема Автор DL S | L
Фильмы [HD 720p, 1080p] (Хороший звук DUB, MVO) [ 7.36 GB ] Молчание / The Silence [2019 BDRip 1080p] DUB [SDI Media] bober100 Скачать
7 | 0
Фильмы 2019 [DVDrip, WEB-DLRip, HDrip] (DUB, MVO) [ 1.46 GB ] Молчание / The Silence [2019 BDRip] - [SDI Media] Twi7ter Скачать
23 | 2
Фильмы 2019 [DVDrip, WEB-DLRip, HDrip] (DUB, MVO) [ 707 MB ] Молчание / The Silence [2019 HDRip "SDI Media"] coc900 Скачать
3 | 0
Фильмы 2019 [DVDrip, WEB-DLRip, HDrip] (DUB, MVO) [ 745 MB ] Молчание / The Silence [2019 BDRip-AVC] DUB [SDI Media] - OlLanDGroup Skandar2019 Скачать
2 | 0
Фильмы 2019 [DVDrip, WEB-DLRip, HDrip] (DUB, MVO) [ 1.46 GB ] Молчание / The Silence [2019 BDRip] killermax2013 Скачать
5 | 0
T Фильмы (мультфильмы) cо спонсором показа (Новинки AVI/MKV) [ 4.56 GB ] Цена молчания / The Price for Silence [2018 WEB-DL 720p] MVO ["Синема УС"] bober100 Скачать
1 | 0
T Фильмы (мультфильмы) cо спонсором показа (Новинки AVI/MKV) [ 1.46 GB ] Цена молчания / The Price for Silence [2018 WEB-DLRip] MVO ["Синема УС"] bober100 Скачать
1 | 0


Последний раз редактировалось: bober100 (2019-11-10 03:05), всего редактировалось 1 раз
Отключить всю рекламу на сайте

02-06-2019 20:34 Молчание Скачать торрент  

Фильм оказался несколько лучше ожиданий. Не прям, чтобы очень лучше, на вечер можно.pb.wtf



10-11-2019 07:16 Молчание Скачать торрент  

и правда неплохое кино.не ожидал.любителям жанра к просмотру.на вечер самое то.pb.wtf



    Дорогой пользователь! Огромная просьба, поблагодарите релизера, оцените раздачу и оставьте свои комментарий, если Вы скачали Молчание через торрент бесплатно! Внесите свою лепту в развитие PiratBit!
    Комментировать посты могут только пользователи прошедшие не сложную регистрацию
    Показать сообщения:    

    Молчание через торрент
    Скачать бесплатно Молчание
    Молчание скачать торрент
    Молчание смотреть онлайн
    Cкачать фильм Молчание бесплатно
    Молчание скачать торрент в хорошем качестве
    Молчание смотреть онлайн бесплатно в хорошем качестве


    Вы не можете начинать темы
    Вы не можете отвечать на сообщения
    Вы не можете редактировать свои сообщения
    Вы не можете удалять свои сообщения
    Вы не можете голосовать в опросах
    Вы не можете прикреплять файлы к сообщениям
    Вы можете скачивать файлы