новый адрес
Ссылка на приватное зеркало всего за 1$. Внимание количество ограничено!!!

iTunes

1+1

iTunes

мы

WEB-DL

1

iTunes

Чернобыль

iTunes

Ральф против интернета

Лицензия

ПШазам

Лицензия

Оно 2

Лицензия

30
pack

Вам бонус

ВАЖНО

!!Акция!!

Alien_RageХит недели

RePack

Resident Evil 21

ИГРА 18+

pack

RePack

jed

!!Акция!!

Alien_Rage

RePack

fifa19

RePack

Assassins Creed: Odyssey

RePack

NEED FOR SPEED™ PAYBACK

3 сезон

9 сезон

Бесстыжие 9 сезон

Все сериалы

все сериалы на PB.wtf

RePack

FAR CRY 5
Ребята, катастрофически не хватает 1900р. для оплаты серверов за Октябрь (всвязи с блокировками трафик упал в 3 раза), 1-2р., выручайте.
  

Рубеж мира / Rim of the World (МакДжи / McG) [2019, фантастика, боевик, комедия, приключения, WEB-DLRip-AVC] [Dub] (Пифагор) - ExKinoRay pb.wtf

Рубеж мира через торрент pb.wtf

Раздают: 36 [ 167 KB/s ] Качают: 1 [ 676 KB/s ]
Размер: 1.94 GB | Добавлен: 6 мес. назад | Торрент скачан:568 раз
Скачать  

24-05-2019 18:24 Рубеж мира Скачать торрент  

Название: Рубеж мира
Оригинальное название: Rim of the World
Год выпхода: 2019
Жанр: фантастика, боевик, комедия
Режиссер: МакДжи
В ролях: Линн Коллинз, Аннабет Гиш, Майкл Бич, Тони Кавалеро, Дин Джаггер III, Мия Чех, Джек Гор, Эндрю Бэчелор, Пьюнем Пэйтел, Андреа Сьюзен Буш

Описание: Четверо подростков-неудачников поневоле становятся союзниками, когда их отдых в летнем лагере прерывает вторжение пришельцев. И теперь подростки должны объединиться, преодолеть свои страхи и неуверенность и действовать как одна команда для того, чтобы попытаться спасти мир.

rating

Страна: США
Студия: Wonderland Sound and Vision, Netflix
Продолжительность: 01:39:08
Перевод: Профессиональный (дублированный) Пифагор
Субтитры: Russian (Forced, Full), English (Forced, Full)

БЕЗ КАКОЙ-ЛИБО РЕКЛАМЫ!

Формат: MKV
Качество: WEB-DLRip-AVC
Видео: MPEG-4 AVC, 1024x512 (2.00:1), 23.976 fps, 1904 Kbps, 0.171 bit/pixel
Аудио #01: 48 kHz, AC3, 5.1, 448 Kbps | Пифагор | RUS |
Аудио #02: 48 kHz, AC3, 5.1, 448 Kbps | Оригинал | ENG |
General
Unique ID : 170947108682137558847577973361756430904 (0x809B372E66038A9B900BB44622BD6238)
Complete name : D:\Rim.of.the.World.2019.Dub.NF.WEB-DLRip.AVC.ExKinoRay.mkv
Format : Matroska
Format version : Version 2
File size : 1.94 GiB
Duration : 1 h 39 min
Overall bit rate : 2 801 kb/s
Movie name : Rim of the World (2019) from ExKinoRay
Encoded date : UTC 2019-05-24 16:51:07
Writing application : mkvmerge v5.6.0 ('Kenya Kane') built on May 27 2012 16:44:04
Writing library : libebml v1.2.3 + libmatroska v1.3.0

Video
ID : 1
Format : AVC
Format/Info : Advanced Video Codec
Format profile : High@L4.1
Format settings, CABAC : Yes
Format settings, ReFrames : 11 frames
Codec ID : V_MPEG4/ISO/AVC
Duration : 1 h 39 min
Bit rate : 1 904 kb/s
Width : 1 024 pixels
Height : 512 pixels
Display aspect ratio : 2.000
Frame rate mode : Constant
Frame rate : 23.976 (23976/1000) FPS
Color space : YUV
Chroma subsampling : 4:2:0
Bit depth : 8 bits
Scan type : Progressive
Bits/(Pixel*Frame) : 0.151
Stream size : 1.28 GiB (66%)
Title : Enigma
Writing library : x264 core 152 r2851 ba24899
Encoding settings : cabac=1 / ref=11 / deblock=1:-2:-2 / analyse=0x3:0x113 / me=umh / subme=10 / psy=1 / psy_rd=1.05:0.10 / mixed_ref=1 / me_range=32 / chroma_me=1 / trellis=2 / 8x8dct=1 / cqm=0 / deadzone=21,11 / fast_pskip=0 / chroma_qp_offset=-3 / threads=12 / lookahead_threads=3 / sliced_threads=0 / nr=0 / decimate=0 / interlaced=0 / bluray_compat=0 / constrained_intra=0 / bframes=12 / b_pyramid=2 / b_adapt=2 / b_bias=0 / direct=3 / weightb=1 / open_gop=0 / weightp=2 / keyint=240 / keyint_min=23 / scenecut=40 / intra_refresh=0 / rc=2pass / mbtree=0 / bitrate=1904 / ratetol=1.0 / qcomp=0.60 / qpmin=0 / qpmax=51 / qpstep=4 / cplxblur=20.0 / qblur=0.5 / ip_ratio=1.30 / pb_ratio=1.20 / aq=1:1.00
Language : English
Default : Yes
Forced : No
Color range : Limited
Color primaries : BT.709
Transfer characteristics : BT.709
Matrix coefficients : BT.709

Audio #1
ID : 2
Format : AC-3
Format/Info : Audio Coding 3
Mode extension : CM (complete main)
Format settings, Endianness : Big
Codec ID : A_AC3
Duration : 1 h 39 min
Bit rate mode : Constant
Bit rate : 448 kb/s
Channel(s) : 6 channels
Channel positions : Front: L C R, Side: L R, LFE
Sampling rate : 48.0 kHz
Frame rate : 31.250 FPS (1536 spf)
Compression mode : Lossy
Stream size : 318 MiB (16%)
Title : Dub (Пифагор)
Language : Russian
Default : Yes
Forced : No

Audio #2
ID : 3
Format : AC-3
Format/Info : Audio Coding 3
Mode extension : CM (complete main)
Format settings, Endianness : Big
Codec ID : A_AC3
Duration : 1 h 39 min
Bit rate mode : Constant
Bit rate : 448 kb/s
Channel(s) : 6 channels
Channel positions : Front: L C R, Side: L R, LFE
Sampling rate : 48.0 kHz
Frame rate : 31.250 FPS (1536 spf)
Compression mode : Lossy
Stream size : 318 MiB (16%)
Language : English
Default : No
Forced : No

Text #1
ID : 4
Format : UTF-8
Codec ID : S_TEXT/UTF8
Codec ID/Info : UTF-8 Plain Text
Title : Forced
Language : Russian
Default : Yes
Forced : No

Text #2
ID : 5
Format : UTF-8
Codec ID : S_TEXT/UTF8
Codec ID/Info : UTF-8 Plain Text
Title : Full
Language : Russian
Default : No
Forced : No

Text #3
ID : 6
Format : UTF-8
Codec ID : S_TEXT/UTF8
Codec ID/Info : UTF-8 Plain Text
Title : Forced
Language : English
Default : No
Forced : No

Text #4
ID : 7
Format : UTF-8
Codec ID : S_TEXT/UTF8
Codec ID/Info : UTF-8 Plain Text
Title : Full
Language : English
Default : No
Forced : No
Релиз от:

Автор релиза: pb.wtf



Скачать Рубеж мира через торрент https://i4.imageban.ru/out/2019/05/24/e864dd270c6b452277926fd63dd1610d.jpg Скачать фильм Рубеж мира через торрент бесплантно в хорошем качестве Описание: Четверо подростков-неудачников поневоле становятся союзниками, когда их отдых в летнем лагере прерывает вторжение пришельцев. И ... 9.4 10 12
Info! Золотая раздача, скачанное не засчитывается.
Торрент: Зарегистрирован [2019-05-24 18:24] · скачан: 568 раз
Статус: √ проверено
Размер: 1.94 GB
Как cкачать? Как скачать Рубеж мира через торрент | qTorrent

28-11-2019 20:33  

Отключить всю рекламу на сайте

25-05-2019 18:32 Рубеж мира Скачать торрент  

ой бляяяя...pb.wtf



25-05-2019 19:41 Рубеж мира Скачать торрент  

Детский фильм, зря потратил время.pb.wtf



    Дорогой пользователь! Огромная просьба, поблагодарите релизера, оцените раздачу и оставьте свои комментарий, если Вы скачали Рубеж мира через торрент бесплатно! Внесите свою лепту в развитие PiratBit!
    Комментировать посты могут только пользователи прошедшие не сложную регистрацию
    Показать сообщения:    

    Рубеж мира через торрент
    Скачать бесплатно Рубеж мира
    Рубеж мира скачать торрент
    Рубеж мира смотреть онлайн
    Cкачать фильм Рубеж мира бесплатно
    Рубеж мира скачать торрент в хорошем качестве
    Рубеж мира смотреть онлайн бесплатно в хорошем качестве


    Вы не можете начинать темы
    Вы не можете отвечать на сообщения
    Вы не можете редактировать свои сообщения
    Вы не можете удалять свои сообщения
    Вы не можете голосовать в опросах
    Вы не можете прикреплять файлы к сообщениям
    Вы можете скачивать файлы