Anonymous, добрый вечер, присоединяйтесь к нам в Telegram!, здесь всегда актуальный адрес сайта, оперативная поддержка и многое другое!

>

5.5

iTunes

7.4

iTunes

7.9

iTunes

1

7.7

1 сезон

6.8

iTunes

7.3

1 сезон

13

6.7

1 сезон

8.3

RePack

30

ULTIMATE

pack

9.9

Лицензия

ВАЖНО

ИГРА 18+

pack

7.3

RePack

MK11

7.7

RePack

jed

7.8

RePack

fifa19

8.5

RePack

RDR2

RePack

NEED FOR SPEED™ PAYBACK

4 сезон

9 сезон

Бесстыжие 9 сезон

Все сериалы

все сериалы на PB.wtf

RePack

FAR CRY 5

Anonymous, добрый вечер, мы катастрофически не успеваем собрать деньги на оплату серверов, помогите нам пожалуйста 5,10,15р., для нас важна любая помощь . В качестве благодарности мы отключим Вам всю рекламу на сайте (укажите свой ник в строку Ваше имя)!

×
  
Magnet ссылка

Фитнес / Королева фитнеса/ Сезон: 2 / Серии: 1-20 из 20 (Антон Маслов) [2019, комедия, WEB-DL 720p] pb.wtf

Фитнес через торрент pb.wtf

Размер: 9.08 GB | Добавлен: 2 года назад | Торрент скачан:143 раза
Смотреть онлайн Фитнес | Скачать    Ребята, помогите собрать деньги на оплату серверов!!!

24-05-2019 19:20 Фитнес Скачать торрент  

Фитнес / Королева фитнеса Год выпуска: 2019
Страна: Россия
Жанр: комедия
Продолжительность: ~ 00:25:00 (Серия)
Субтитры: отсутствуют

Режиссер: Антон Маслов



В ролях: Софья Зайка, Михаил Трухин, Татьяна Храмова (II), Роман Курцын, Алексей Демидов, Борис Дергачев, Марианна Шульц, Ольга Баранова, Анна Лауренская, Татьяна Сомова, Мария Малиновская, Александр Семчев, Данила Якушев, Евгений Михеев, Дмитрий Чеботарёв, Елизавета Мартинес, Ирина Бякова, Андрей Пынзару

Описание: «Быстрее, выше, сильнее»… Перемены в фитнес-клубе SUPERFIT. Похудевшая на 20 килограмм Ася будет строить карьеру и личную жизнь. Теперь она решила делиться советами о том, как сбросить лишний вес, в своей группе «ВКонтакте». Блогерская деятельность постепенно начинает отнимать у нее все больше времени, что очень расстраивает Бориса. К дружной команде присоединится массажист Фил, а одного из сотрудников ждёт встреча с бывшей женой.

Качество: WEB-DL 720p
Формат: MKV

Видео: MPEG4 AVC Video, H264, 16:9 1280x720, 25 fps, ~2600 kbps, 0.113 bit/pixel
Аудио: 48.0 kHz, AC3 Dolby Digital, 2/0 (L,R) ch, ~ 192 kbps
скриншот  скриншот  скриншот  скриншот  

General
Unique ID : 175635980007473308871077902054404575316 (0x84224262D9651806BF00EA03A6CAD054)
Complete name : D:\Fitnes.S02.2019.WEB-DL.720p.ExKinoRay\Fitnes.s02.e01.2019.WEB-DL.720p.ExKinoRay.mkv
Format : Matroska
Format version : Version 2
File size : 480 MiB
Duration : 24 min 18 s
Overall bit rate mode : Constant
Overall bit rate : 2 760 kb/s
Encoded date : UTC 2019-05-23 21:23:32
Writing application : mkvmerge v5.8.0 ('No Sleep / Pillow') built on Sep 2 2012 15:37:04
Writing library : libebml v1.2.3 + libmatroska v1.3.0

Video
ID : 1
Format : AVC
Format/Info : Advanced Video Codec
Format profile : Baseline@L4
Format settings : 4 Ref Frames
Format settings, CABAC : No
Format settings, ReFrames : 4 frames
Codec ID : V_MPEG4/ISO/AVC
Duration : 24 min 18 s
Bit rate mode : Constant
Bit rate : 2 600 kb/s
Width : 1 280 pixels
Height : 720 pixels
Display aspect ratio : 16:9
Frame rate mode : Constant
Frame rate : 25.000 FPS
Standard : PAL
Color space : YUV
Chroma subsampling : 4:2:0
Bit depth : 8 bits
Scan type : Progressive
Bits/(Pixel*Frame) : 0.113
Stream size : 437 MiB (91%)
Language : Russian
Default : Yes
Forced : No
Color range : Limited
Color primaries : BT.709
Transfer characteristics : BT.709
Matrix coefficients : BT.709

Audio
ID : 2
Format : AC-3
Format/Info : Audio Coding 3
Codec ID : A_AC3
Duration : 24 min 18 s
Bit rate mode : Constant
Bit rate : 192 kb/s
Channel(s) : 2 channels
Channel positions : Front: L R
Sampling rate : 48.0 kHz
Frame rate : 31.250 FPS (1536 SPF)
Bit depth : 16 bits
Compression mode : Lossy
Stream size : 33.4 MiB (7%)
Language : Russian
Service kind : Complete Main
Default : Yes
Forced : No

Внимание! Раздача ведётся путём добавления новых серий; при каждом добавлении создаётся новый торрент. Чтобы начать докачку новой серии, пользователям необходимо сделать следующее:
Остановить скачивание.
Удалить старый торрент у себя из клиента (старые серии удалять не надо).
Скачать новый торрент и запустить его у себя в клиенте вместо старого, при этом указать клиенту путь в старую папку куда и должно происходить скачивание новых серий.

Ваш клиент при этом должен произвести хеширование (проверку) старой папки (если не производит сам - помогите ему сделать это), и будет докачивать только те серии которых у вас ещё нет. Старые серии при этом не удаляются, а продолжают раздаваться!
Eсли вы уже удалили старые серии, то предотвратить повторную закачку старых серий можно, отжав галочку в соответсвующих местах при запуске нового торрента. По возможности, желательно не удалять старые серии как можно дольше чтобы релизёр не столько продолжал раздавать старые серии, а смог сконцентрироваться на новых.
pb.wtf



Скачать Фитнес через торрент https://i109.fastpic.ru/big/2019/0523/b0/20ddfc86e78dbd8f78b5a0fa9b8c40b0.jpg Скачать, смотреть онлайн Фитнес бесплантно в хорошем качестве Описание: «Быстрее, выше, сильнее»… Перемены в фитнес-клубе SUPERFIT. Похудевшая на 20 килограмм Ася будет строить карьеру и личную жизнь. ... 10 10 10
Торрент: Зарегистрирован [2019-10-17 02:24] · скачан: 143 раз
Статус: √ проверено
Размер: 9.08 GB
Как cкачать? Как скачать Фитнес через торрент | UTorrent

% Раздел Тема Автор DL S | L
TNT serials [ 16.88 GB ] Фитнес / Королева фитнеса / Сезон: 2 / Серии: 1-20 из 20 [2019 WEB-DL 1080p] bober100 Скачать
2 | 0
TNT serials [ 5.85 GB ] Фитнес / Королева фитнеса / Сезон: 2 / Серии: 1-20 из 20 [2019 WEBRip-AVC] bober100 Скачать
1 | 1
TNT serials [ 6.84 GB ] Фитнес / Королева фитнеса / Сезон: 2 / Серии: 1-20 из 20 [2019 WEB-DLRip] bober100 Скачать
1 | 0


Последний раз редактировалось: bober100 (2019-10-17 02:24), всего редактировалось 5 раз(а)

28-11-2019 20:33  

Отключить всю рекламу на сайте

29-08-2019 19:27 Фитнес Скачать торрент  

А где остальные серии ?pb.wtf



    Дорогой пользователь! Огромная просьба, поблагодарите релизера, оцените раздачу и оставьте свои комментарий, если Вы скачали Фитнес через торрент бесплатно!
    Комментировать посты могут только пользователи прошедшие не сложную регистрацию
    Показать сообщения:    

    Фитнес через торрент
    Скачать бесплатно Фитнес
    Фитнес скачать торрент
    Фитнес смотреть онлайн
    Cкачать фильм Фитнес бесплатно
    Фитнес скачать торрент в хорошем качестве
    Фитнес смотреть онлайн бесплатно в хорошем качестве


    Вы не можете начинать темы
    Вы не можете отвечать на сообщения
    Вы не можете редактировать свои сообщения
    Вы не можете удалять свои сообщения
    Вы не можете голосовать в опросах
    Вы не можете прикреплять файлы к сообщениям
    Вы можете скачивать файлы