Ссылка на приватное зеркало нашего сайта всего за 1$. Внимание количество ограничено!!!

2 сезон

iTunes

1 сезон

1

2 сезон

2 сезон

iTunes

1 сезон

RePack

30

Новинка

ВАЖНО

ИГРА 18+

pack

RePack

MK11
pack

Забери бонус

RePack

jed

!!Акция!!

Alien_Rage

RePack

fifa19

RePack

Assassins Creed: Odyssey

RePack

NEED FOR SPEED™ PAYBACK

4 сезон

9 сезон

Бесстыжие 9 сезон

Все сериалы

все сериалы на PB.wtf

RePack

FAR CRY 5
  

Рубеж мира / Rim of the World (МакДжи) [2019, Фантастика, боевик, комедия, приключения, WEBRip 720p] DUB [Пифагор] pb.wtf

Рубеж мира через торрент pb.wtf

Раздают: 1 [ 0 KB/s ]
Размер: 3.11 GB | Добавлен: 1 год 6 мес. назад | Торрент скачан:189 раз
Скачать  

24-05-2019 19:32 Рубеж мира Скачать торрент  

Рубеж мира / Rim of the World Год выпуска: 2019
Страна: США
Жанр: Фантастика, боевик, комедия, приключения
Продолжительность: 01:39:08
Перевод: Дублированный | Пифагор
Субтитры: Русские (Forced, Full), английские, французские, немецкие, португальские, итальянские

Режиссер: МакДжи

rating


В ролях:

Линн Коллинз, Аннабет Гиш, Майкл Бич, Тони Кавалеро, Дин Джаггер III, Мия Чех, Джек Гор, Эндрю Бэчелор, Пьюнем Пэйтел, Андреа Сьюзен Буш

Описание:

Четверо подростков-неудачников поневоле становятся союзниками, когда их отдых в летнем лагере прерывает вторжение пришельцев. И теперь подростки должны объединиться, преодолеть свои страхи и неуверенность и действовать как одна команда для того, чтобы попытаться спасти мир.

Качество: WEBRip 720p
Формат: MKV

Видео: MPEG-4 AVC, 3277 Kбит/с, 1280x640, 23.976 кадр/с
Аудио#1: Русский (АС3, 6ch, 448 Кбит/с, 48.0 KHz) Профессиональный (полное дублирование) Пифагор
Аудио#2: Английский (E-AC-3 JOC, 6ch, 768 Кбит/с, 48.0 KHz)
скриншот  скриншот  скриншот  скриншот  скриншот  

Источник: Rim.of.the.World.2019.720p.WEBRip.x264-STRiFE
General
Unique ID : 177411252215272410798311908491516028617 (0x85782A104D8CB887A073B7601535A6C9)
Complete name : Rim.of.the.World.2019.WEBRip.720p.mkv
Format : Matroska
Format version : Version 4
File size : 3.11 GiB
Duration : 1 h 39 min
Overall bit rate : 4 496 kb/s
Movie name : Rim of the World (2019) - EniaHD
Encoded date : UTC 2019-05-24 18:19:50
Writing application : mkvmerge v7.1.0 ('Good Love') 64bit built on Jul 27 2014 13:06:55
Writing library : libebml v1.3.0 + libmatroska v1.4.1

Video
ID : 1
Format : AVC
Format/Info : Advanced Video Codec
Format profile : High@L4.1
Format settings : CABAC / 5 Ref Frames
Format settings, CABAC : Yes
Format settings, ReFrames : 5 frames
Codec ID : V_MPEG4/ISO/AVC
Duration : 1 h 39 min
Bit rate : 3 277 kb/s
Width : 1 280 pixels
Height : 640 pixels
Display aspect ratio : 2.000
Frame rate mode : Constant
Frame rate : 23.976 (24000/1001) FPS
Color space : YUV
Chroma subsampling : 4:2:0
Bit depth : 8 bits
Scan type : Progressive
Bits/(Pixel*Frame) : 0.167
Stream size : 2.27 GiB (73%)
Writing library : x264 core 157 r2969 d4099dd
Encoding settings : cabac=1 / ref=5 / deblock=1:-3:-3 / analyse=0x3:0x113 / me=hex / subme=8 / psy=1 / psy_rd=1.00:0.15 / mixed_ref=1 / me_range=16 / chroma_me=1 / trellis=2 / 8x8dct=1 / cqm=0 / deadzone=21,11 / fast_pskip=0 / chroma_qp_offset=-2 / threads=18 / lookahead_threads=3 / sliced_threads=0 / nr=0 / decimate=1 / interlaced=0 / bluray_compat=0 / constrained_intra=0 / bframes=3 / b_pyramid=2 / b_adapt=1 / b_bias=0 / direct=3 / weightb=1 / open_gop=0 / weightp=2 / keyint=240 / keyint_min=23 / scenecut=40 / intra_refresh=0 / rc_lookahead=50 / rc=crf / mbtree=1 / crf=18.0 / qcomp=0.60 / qpmin=0 / qpmax=69 / qpstep=4 / ip_ratio=1.40 / aq=3:0.80
Language : English
Default : Yes
Forced : No

Audio #1
ID : 2
Format : AC-3
Format/Info : Audio Coding 3
Commercial name : Dolby Digital
Codec ID : A_AC3
Duration : 1 h 39 min
Bit rate mode : Constant
Bit rate : 448 kb/s
Channel(s) : 6 channels
Channel layout : L R C LFE Ls Rs
Sampling rate : 48.0 kHz
Frame rate : 31.250 FPS (1536 SPF)
Bit depth : 16 bits
Compression mode : Lossy
Stream size : 318 MiB (10%)
Title : Dub | Пифагор
Language : Russian
Service kind : Complete Main
Default : Yes
Forced : No

Audio #2
ID : 3
Format : E-AC-3 JOC
Format/Info : Enhanced AC-3 with Joint Object Coding
Commercial name : Dolby Digital Plus with Dolby Atmos
Codec ID : A_EAC3
Duration : 1 h 39 min
Bit rate mode : Constant
Bit rate : 768 kb/s
Channel(s) : 6 channels
Channel layout : L R C LFE Ls Rs
Sampling rate : 48.0 kHz
Frame rate : 31.250 FPS (1536 SPF)
Compression mode : Lossy
Stream size : 545 MiB (17%)
Language : English
Service kind : Complete Main
Default : No
Forced : No
Complexity index : 16
Number of dynamic objects : 15
Bed channel count : 1 channel
Bed channel configuration : LFE

Text #1
ID : 4
Format : UTF-8
Codec ID : S_TEXT/UTF8
Codec ID/Info : UTF-8 Plain Text
Duration : 1 h 38 min
Bit rate : 2 b/s
Count of elements : 36
Stream size : 1.45 KiB (0%)
Title : Forced
Language : Russian
Default : Yes
Forced : No

Text #2
ID : 5
Format : UTF-8
Codec ID : S_TEXT/UTF8
Codec ID/Info : UTF-8 Plain Text
Duration : 1 h 38 min
Bit rate : 77 b/s
Count of elements : 1372
Stream size : 55.6 KiB (0%)
Title : Full
Language : Russian
Default : No
Forced : No

Text #3
ID : 6
Format : UTF-8
Codec ID : S_TEXT/UTF8
Codec ID/Info : UTF-8 Plain Text
Duration : 1 h 4 min
Bit rate : 0 b/s
Count of elements : 7
Stream size : 239 Bytes (0%)
Title : Forced
Language : English
Default : No
Forced : No

Text #4
ID : 7
Format : UTF-8
Codec ID : S_TEXT/UTF8
Codec ID/Info : UTF-8 Plain Text
Duration : 1 h 31 min
Bit rate : 75 b/s
Count of elements : 1741
Stream size : 50.7 KiB (0%)
Language : English
Default : No
Forced : No

Text #5
ID : 8
Format : UTF-8
Codec ID : S_TEXT/UTF8
Codec ID/Info : UTF-8 Plain Text
Duration : 1 h 31 min
Bit rate : 56 b/s
Count of elements : 1434
Stream size : 38.0 KiB (0%)
Title : Brazilian
Language : Portuguese
Default : No
Forced : No

Text #6
ID : 9
Format : UTF-8
Codec ID : S_TEXT/UTF8
Codec ID/Info : UTF-8 Plain Text
Duration : 1 h 38 min
Bit rate : 58 b/s
Count of elements : 1459
Stream size : 42.3 KiB (0%)
Language : French
Default : No
Forced : No

Text #7
ID : 10
Format : UTF-8
Codec ID : S_TEXT/UTF8
Codec ID/Info : UTF-8 Plain Text
Duration : 1 h 38 min
Bit rate : 50 b/s
Count of elements : 1325
Stream size : 36.1 KiB (0%)
Language : German
Default : No
Forced : No

Text #8
ID : 11
Format : UTF-8
Codec ID : S_TEXT/UTF8
Codec ID/Info : UTF-8 Plain Text
Duration : 1 h 38 min
Bit rate : 47 b/s
Count of elements : 1368
Stream size : 34.2 KiB (0%)
Language : Italian
Default : No
Forced : No

pb.wtf



Скачать Рубеж мира через торрент http://b.radikal.ru/b09/1905/2d/56a894f500da.jpg Скачать фильм Рубеж мира через торрент бесплантно в хорошем качестве Описание: Четверо подростков-неудачников поневоле становятся союзниками, когда их отдых в летнем лагере прерывает вторжение пришельцев. И ... 10 10 6
Торрент: Зарегистрирован [2019-05-24 19:32] · скачан: 189 раз
Статус: √ проверено
Размер: 3.11 GB
Как cкачать? Как скачать Рубеж мира через торрент | qTorrent

% Раздел Тема Автор DL S | L
Ultra HD (UHD: 2K, 4K, 8K) — видео сверхвысокой чёткости [ 11.59 GB ] Край света / Рубеж мира / Rim of the World [2019 UHD WEB-DL 2160p] [SDR] [Пифагор] sheker187 Скачать
1 | 0
Фильмы 2019-2020 [DVDrip, WEB-DLRip, HDrip] (DUB, MVO) [ 1.94 GB ] Рубеж мира / Rim of the World [2019 WEB-DLRip-AVC] - ExKinoRay Enigma2010 Скачать
15 | 0
Фильмы (WEB-DL 720p, 1080p) [ 5.61 GB ] Рубеж мира / Rim of the World [2019 WEB-DL 1080p] killermax2013 Скачать
1 | 0
Фильмы 2019-2020 [DVDrip, WEB-DLRip, HDrip] (DUB, MVO) [ 1.46 GB ] Рубеж мира / Rim of the World [2019 WEB-DLRip] killermax2013 Скачать
3 | 0

28-11-2019 20:33  

Отключить всю рекламу на сайте

    Дорогой пользователь! Огромная просьба, поблагодарите релизера, оцените раздачу и оставьте свои комментарий, если Вы скачали Рубеж мира через торрент бесплатно! Внесите свою лепту в развитие PiratBit!
    Комментировать посты могут только пользователи прошедшие не сложную регистрацию
    Показать сообщения:    

    Рубеж мира через торрент
    Скачать бесплатно Рубеж мира
    Рубеж мира скачать торрент
    Рубеж мира смотреть онлайн
    Cкачать фильм Рубеж мира бесплатно
    Рубеж мира скачать торрент в хорошем качестве
    Рубеж мира смотреть онлайн бесплатно в хорошем качестве


    Вы не можете начинать темы
    Вы не можете отвечать на сообщения
    Вы не можете редактировать свои сообщения
    Вы не можете удалять свои сообщения
    Вы не можете голосовать в опросах
    Вы не можете прикреплять файлы к сообщениям
    Вы можете скачивать файлы