Ссылка на приватное зеркало нашего сайта всего за 1$. Внимание количество ограничено!!!

2 сезон

iTunes

1 сезон

1

iTunes

iTunes

iTunes

1 сезон

RePack

30

ИГРА 18+

pack

ВАЖНО

!!Акция!!

Alien_RageХит недели

RePack

MK11
pack

Забери бонус

RePack

jed

!!Акция!!

Alien_Rage

RePack

fifa19

RePack

Assassins Creed: Odyssey

RePack

NEED FOR SPEED™ PAYBACK

4 сезон

9 сезон

Бесстыжие 9 сезон

Все сериалы

все сериалы на PB.wtf

RePack

FAR CRY 5
  

Консультант / Сезон: 2 / Серии: 1-10 из 10 (Дмитрий Коробкин) [2019, Детектив, триллер, SATRip] pb.wtf

Консультант через торрент pb.wtf

Размер: 6.59 GB | Добавлен: 1 год 4 мес. назад | Торрент скачан:91 раз
Скачать  

24-05-2019 19:43 Консультант Скачать торрент  

Консультант Год выпуска: 2019
Страна: Россия
Жанр: Детектив, триллер
Продолжительность: ~ 00:48:00
Субтитры: отсутствуют

Режиссер: Дмитрий Коробкин



В ролях:

Кирилл Кяро, Максим Дрозд, Иван Рудаков, Игорь Хрипунов, Анастасия Акатова, Анна Носатова, Виктор Цекало, Юрий Архангельский, Марина Волкова, Анна Шкиль, Юля Арутюнова, Филипп Котов, Ксения Золотухина, Владимир Матвеев, Татьяна Яхина, Виталий Шпортько

Описание:

В новых сериях психологического детектива Вячеславу Широкову и Олегу Брагину предстоит разгадать новую криминальную головоломку. На этот раз полюбившиеся зрителям герои выйдут на след серийного убийцы, который охотится за солисткой популярной группы Алиной Репиной и убивает девушек, похожих не неё. Широков и Брагин всё ещё по-разному подходят к раскрытию преступлений: Широков развивает свою теорию о психологическом портрете преступника, но в ходе следствия возникнут ситуации, в которых он засомневается в правильности своего метода, а Брагин по-прежнему действует на профессиональной интуиции матёрого следователя.

Качество: SATRip
Формат: AVI

Видео: XviD, 720x400, ~ 1650 Кбит/с
Аудио: МР3, 2 ch, 192 Кбит/с
скриншот  скриншот  скриншот  скриншот  

Общее
Полное имя : E:\Консультант.S02.XviD.2019.SATRip.7turza\01.Консультант.7turza.avi
Формат : AVI
Формат/Информация : Audio Video Interleave
Размер файла : 668 Мбайт
Продолжительность : 49 м. 14 с.
Общий поток : 1897 Кбит/сек
Программа кодирования : VirtualDubMod 1.5.10.2 (build 2540/release)
Библиотека кодирования : VirtualDubMod build 2540/release

Видео
Идентификатор : 0
Формат : xvid
Идентификатор кодека : xvid
Продолжительность : 49 м. 14 с.
Битрейт : 1696 Кбит/сек
Ширина : 720 пикселей
Высота : 400 пикселей
Соотношение сторон : 16:9
Частота кадров : 25,000 кадров/сек
Бит/(Пиксели*Кадры) : 0.236
Размер потока : 597 Мбайт (89%)

Аудио
Идентификатор : 1
Формат : MPEG Audio
Версия формата : Version 1
Профиль формата : Layer 3
Настройки формата : Joint stereo / MS Stereo
Идентификатор кодека : 55
Идентификатор кодека/Подсказка : MP3
Продолжительность : 49 м. 14 с.
Вид битрейта : Постоянный
Битрейт : 192 Кбит/сек
Каналы : 2 канала
Частота : 48,0 КГц
Размер потока : 67,6 Мбайт (10%)
Выравнивание : Разделение по промежуткам
Продолжительность промежутка : 40 мс. (1,00 видеокадр)
Время предзагрузки промежутка : 500 мс.

pb.wtf



Скачать Консультант через торрент https://d.radikal.ru/d39/1905/0e/d4a0ac996d0e.jpg Скачать фильм Консультант через торрент бесплантно в хорошем качестве Описание: В новых сериях психологического детектива Вячеславу Широкову и Олегу Брагину предстоит разгадать новую криминальную головоломку. ... 10 10 4
Торрент: Зарегистрирован [2019-05-24 19:43] · скачан: 91 раз
Статус: √ проверено
Размер: 6.59 GB
Как cкачать? Как скачать Консультант через торрент | qTorrent

% Раздел Тема Автор DL S | L
Наши сериалы [ 14.52 GB ] Консультант / Сезон: 2 / Серии: 1-10 из 10 [2019 WEB-DL 720p] bober100 Скачать
2 | 0
Наши сериалы [ 21.32 GB ] Консультант / Сезон: 2 / Серии: 1-10 из 10 [2019 WEB-DL 1080p] bober100 Скачать
1 | 0
Наши сериалы [ 6.21 GB ] Консультант / Сезон: 2 / Серии: 1-10 из 10 [2019 SATRip-AVC] aleksan55 Скачать
3 | 0
Наши сериалы [ 5.45 GB ] Консультант / Сезон: 2 / Серии: 1- 10 из 10 [2019 WEBRip] oleg8 Скачать
1 | 0

28-11-2019 20:33  

Отключить всю рекламу на сайте

    Дорогой пользователь! Огромная просьба, поблагодарите релизера, оцените раздачу и оставьте свои комментарий, если Вы скачали Консультант через торрент бесплатно! Внесите свою лепту в развитие PiratBit!
    Комментировать посты могут только пользователи прошедшие не сложную регистрацию
    Показать сообщения:    

    Консультант через торрент
    Скачать бесплатно Консультант
    Консультант скачать торрент
    Консультант смотреть онлайн
    Cкачать фильм Консультант бесплатно
    Консультант скачать торрент в хорошем качестве
    Консультант смотреть онлайн бесплатно в хорошем качестве


    Вы не можете начинать темы
    Вы не можете отвечать на сообщения
    Вы не можете редактировать свои сообщения
    Вы не можете удалять свои сообщения
    Вы не можете голосовать в опросах
    Вы не можете прикреплять файлы к сообщениям
    Вы можете скачивать файлы