Ссылка на приватное зеркало нашего сайта всего за 1$. Внимание количество ограничено!!!

2 сезон

iTunes

1 сезон

1

iTunes

iTunes

iTunes

1 сезон

RePack

30

ИГРА 18+

pack

ВАЖНО

!!Акция!!

Alien_RageХит недели

RePack

MK11
pack

Забери бонус

RePack

jed

!!Акция!!

Alien_Rage

RePack

fifa19

RePack

Assassins Creed: Odyssey

RePack

NEED FOR SPEED™ PAYBACK

4 сезон

9 сезон

Бесстыжие 9 сезон

Все сериалы

все сериалы на PB.wtf

RePack

FAR CRY 5
  

Мама Лора / Больше жизни / Сезон: 1 / Серии: 1-16 из 16 (Андрей Силкин) [2019, Детектив, комедия, HDTV 1080i] pb.wtf

Мама Лора через торрент pb.wtf

Размер: 44.52 GB | Добавлен: 1 год 5 мес. назад | Торрент скачан:4 раза
Скачать  

24-05-2019 20:07 Мама Лора Скачать торрент  

Мама Лора / Больше жизни Год выпуска: 2019
Страна: Россия
Жанр: Детектив, комедия
Продолжительность: ~ 00:51:00
Перевод: Не требуется
Субтитры: отсутствуют

Режиссер: Андрей Силкин



В ролях:

Елена Панова, Константин Юшкевич, Ольга Тумайкина, Анна Уколова, Андрей Назимов, Андрей Стоянов, Наталья Тищенко, Елизавета Лотова, Сергей Черданцев, Михаил Куряев, Александр Никольский (II), Ирина Туманцева, Кирилл Чернышенко, Иван Моховиков

Описание:

Владелица придорожного кафе возле подмосковной деревни Сабурово Лора – простая женщина, но природная наблюдательность и неравнодушие к чужой беде пробуждают в ней дар детектива. За свою доброту и отзывчивость она получила прозвище Мама Лора: ни дальнобойщики, ни пассажиры, ни местные жители никогда не уйдут от нее голодными, их всегда выслушают и помогут. Однако жизнь самой Лоры не назовешь легкой: ее муж Гоша бесконечно ищет работу, дочь никак не определится с выбором профессии, у сына не ладится личная жизнь, но Мама Лора не унывает и с одинаковой легкостью печет пирожки и раскрывает уголовные преступления.

Качество: HDTV 1080i
Формат: TS

Видео: AVC, ~ 7500 Кбит/с, 1920x1080, 25 кадр/с
Аудио#1: Русский (AC3, 6 ch, 384 Кбит/с)
Аудио#2: Русский (MP2, 2 ch, 192 Кбит/с)
скриншот  скриншот  скриншот  скриншот  

Общее
Идентификатор : 1 (0x1)
Полное имя : D:ЗаписьMama Lora.HDTV(1080i).GeneralFilm1.Mama Lora.HDTV(1080i).GeneralFilm.ts
Формат : MPEG-TS
Размер файла : 2,88 Гбайт
Продолжительность : 51 м. 2 с.
Режим общего битрейта : Переменный
Общий поток : 8080 Кбит/сек

Видео
Идентификатор : 1904 (0x770)
Идентификатор меню : 80 (0x50)
Формат : AVC
Формат/Информация : Advanced Video Codec
Профиль формата : High@L4
Параметр CABAC формата : Да
Параметр ReFrames формата : 3 кадра
Идентификатор кодека : 27
Продолжительность : 51 м. 2 с.
Битрейт : 7099 Кбит/сек
Ширина : 1920 пикселей
Высота : 1080 пикселей
Соотношение сторон : 16:9
Частота кадров : 25,000 кадров/сек
Стандарт вещания : Component
Цветовое пространство : YUV
Субдискретизация насыщенности : 4:2:0
Битовая глубина : 8 бит
Тип развёртки : Чересстрочная
Метод сохранения типа развёртки : Раздельные поля
Порядок развёртки : Верхнее поле первое
Бит/(Пиксели*Кадры) : 0.137
Размер потока : 2,53 Гбайт (88%)
Цветовой диапазон : Limited
Основные цвета : BT.709
Характеристики трансфера : BT.709
Коэффициенты матрицы : BT.709

Аудио #1
Идентификатор : 2904 (0xB58)
Идентификатор меню : 80 (0x50)
Формат : AC-3
Формат/Информация : Audio Coding 3
Расширение режима : CM (complete main)
Параметр Endianness формата : Big
Идентификатор кодека : 6
Продолжительность : 51 м. 2 с.
Вид битрейта : Постоянный
Битрейт : 384 Кбит/сек
Каналы : 6 каналов
Расположение каналов : Front: L C R, Side: L R, LFE
Частота : 48,0 КГц
Частота кадров : 31,250 кадров/сек (1536 spf)
Битовая глубина : 16 бит
Метод сжатия : С потерями
Задержка видео : -120 мс.
Размер потока : 140 Мбайт (5%)
Язык : Russian

Аудио #2
Идентификатор : 2905 (0xB59)
Идентификатор меню : 80 (0x50)
Формат : MPEG Audio
Версия формата : Version 1
Профиль формата : Layer 2
Идентификатор кодека : 3
Продолжительность : 51 м. 2 с.
Вид битрейта : Постоянный
Битрейт : 192 Кбит/сек
Каналы : 2 канала
Частота : 48,0 КГц
Метод сжатия : С потерями
Задержка видео : -120 мс.
Размер потока : 70,1 Мбайт (2%)
Язык : Russian

pb.wtf



Скачать Мама Лора через торрент http://a.radikal.ru/a33/1905/d1/0430aafd1861.jpg Скачать фильм Мама Лора через торрент бесплантно в хорошем качестве Описание: Владелица придорожного кафе возле подмосковной деревни Сабурово Лора – простая женщина, но природная наблюдательность и ... 10 10 2
Торрент: Зарегистрирован [2019-05-24 20:07] · скачан: 4 раз
Статус: √ проверено
Размер: 44.52 GB
Как cкачать? Как скачать Мама Лора через торрент | qTorrent

% Раздел Тема Автор DL S | L
Наши сериалы [ 28.41 GB ] Мама Лора / Больше жизни / Сезон: 1 / Серии: 1-16 из 16 [2019 WEB-DL 1080p] bober100 Скачать
1 | 0
Наши сериалы [ 12.45 GB ] Мама Лора / Больше жизни / Сезон: 1 / Серии: 1-16 из 16 [2019 HDTVRip-AVC] bober100 Скачать
1 | 0
Наши сериалы [ 20.96 GB ] Мама Лора / Больше жизни / Сезон: 1 / Серии: 1-16 из 16 [2019 HDTVRip 720p] bober100 Скачать
1 | 0
Наши сериалы [ 11.25 GB ] Мама Лора / Больше жизни / Сезон: 1 / Серии: 1-16 из 16 [2019 HDTVRip] bober100 Скачать
1 | 0

28-11-2019 20:33  

Отключить всю рекламу на сайте

    Дорогой пользователь! Огромная просьба, поблагодарите релизера, оцените раздачу и оставьте свои комментарий, если Вы скачали Мама Лора через торрент бесплатно! Внесите свою лепту в развитие PiratBit!
    Комментировать посты могут только пользователи прошедшие не сложную регистрацию
    Показать сообщения:    

    Мама Лора через торрент
    Скачать бесплатно Мама Лора
    Мама Лора скачать торрент
    Мама Лора смотреть онлайн
    Cкачать фильм Мама Лора бесплатно
    Мама Лора скачать торрент в хорошем качестве
    Мама Лора смотреть онлайн бесплатно в хорошем качестве


    Вы не можете начинать темы
    Вы не можете отвечать на сообщения
    Вы не можете редактировать свои сообщения
    Вы не можете удалять свои сообщения
    Вы не можете голосовать в опросах
    Вы не можете прикреплять файлы к сообщениям
    Вы можете скачивать файлы