Ссылка на приватное зеркало нашего сайта всего за 1$. Внимание количество ограничено!!!

2 сезон

iTunes

1 сезон

1

iTunes

iTunes

iTunes

1 сезон

RePack

30

ИГРА 18+

pack

ВАЖНО

!!Акция!!

Alien_RageХит недели

RePack

MK11
pack

Забери бонус

RePack

jed

!!Акция!!

Alien_Rage

RePack

fifa19

RePack

Assassins Creed: Odyssey

RePack

NEED FOR SPEED™ PAYBACK

4 сезон

9 сезон

Бесстыжие 9 сезон

Все сериалы

все сериалы на PB.wtf

RePack

FAR CRY 5
  

Консультант / Сезон: 2 / Серии: 1-10 из 10 (Дмитрий Коробкин) [2019, Детектив, триллер, WEB-DL 1080p] pb.wtf

Консультант через торрент pb.wtf

Размер: 21.32 GB | Добавлен: 1 год 5 мес. назад | Торрент скачан:43 раза
Скачать  

24-05-2019 21:06 Консультант Скачать торрент  

Консультант Год выпуска: 2019
Страна: Россия
Жанр: Детектив, триллер
Продолжительность: ~ 00:48:00
Перевод: Не требуется
Субтитры: отсутствуют

Режиссер: Дмитрий Коробкин



В ролях:

Кирилл Кяро, Максим Дрозд, Иван Рудаков, Игорь Хрипунов, Анастасия Акатова, Анна Носатова, Виктор Цекало, Юрий Архангельский, Марина Волкова, Анна Шкиль, Юля Арутюнова, Филипп Котов, Ксения Золотухина, Владимир Матвеев, Татьяна Яхина, Виталий Шпортько

Описание:

В новых сериях психологического детектива Вячеславу Широкову и Олегу Брагину предстоит разгадать новую криминальную головоломку. На этот раз полюбившиеся зрителям герои выйдут на след серийного убийцы, который охотится за солисткой популярной группы Алиной Репиной и убивает девушек, похожих не неё. Широков и Брагин всё ещё по-разному подходят к раскрытию преступлений: Широков развивает свою теорию о психологическом портрете преступника, но в ходе следствия возникнут ситуации, в которых он засомневается в правильности своего метода, а Брагин по-прежнему действует на профессиональной интуиции матёрого следователя.

Качество: WEB-DL 1080p
Формат: MKV

Видео: 1920х1080 (16:9), 25 fps, AVC MPEG-4 (x264), High@L4.1 ~ 6000 kbps avg, 0.116 bit/pixel
Аудио: 48.0 kHz, AC3 Dolby Digital, 2/0 (L,R) ch, ~ 192 kbps
скриншот  скриншот  скриншот  скриншот  

Общее
Уникальный идентификатор : 204072467053842549357153334218359140389 (0x9986ED7173D509F4A04C2299EEC97025)
Полное имя : C:\Konsultant-2.Lihie.vremena.2018.WEB-DL.(1080p).ExKinoRay\Konsultant-2.Lihie.vremena.(01.seriya).2018.WEB-DL.(1080p).ExKinoRay.mkv
Формат : Matroska
Версия формата : Version 4
Размер файла : 2,12 Гбайт
Продолжительность : 49 м. 14 с.
Режим общего битрейта : Постоянный
Общий поток : 6158 Кбит/сек
Дата кодирования : UTC 2019-05-19 05:56:20
Программа кодирования : mkvmerge v7.8.0 ('River Man') 32bit built on Mar 27 2015 16:18:02
Библиотека кодирования : libebml v1.3.1 + libmatroska v1.4.2

Видео
Идентификатор : 1
Формат : AVC
Формат/Информация : Advanced Video Codec
Профиль формата : High@L4.1
Настройки формата : 2 Ref Frames
Параметр CABAC формата : Нет
Параметр RefFrames формата : 2 кадра
Идентификатор кодека : V_MPEG4/ISO/AVC
Продолжительность : 49 м. 14 с.
Вид битрейта : Постоянный
Битрейт : 6000 Кбит/сек
Ширина : 1920 пикселей
Высота : 1080 пикселей
Соотношение сторон : 16:9
Режим частоты кадров : Постоянный
Частота кадров : 25,000 кадров/сек
Стандарт вещания : PAL
Цветовое пространство : YUV
Субдискретизация насыщенности : 4:2:0
Битовая глубина : 8 бит
Тип развёртки : Прогрессивная
Бит/(Пиксели*Кадры) : 0.116
Размер потока : 2,05 Гбайт (97%)
Default : Да
Forced : Нет
Цветовой диапазон : Limited
Основные цвета : BT.709
Характеристики трансфера : BT.709
Коэффициенты матрицы : BT.709

Аудио
Идентификатор : 2
Формат : AC-3
Формат/Информация : Audio Coding 3
Коммерческое название : Dolby Digital
Идентификатор кодека : A_AC3
Продолжительность : 49 м. 14 с.
Вид битрейта : Постоянный
Битрейт : 192 Кбит/сек
Каналы : 2 канала
ChannelLayout : L R
Частота : 48,0 КГц
Частота кадров : 31,250 кадров/сек (1536 SPF)
Битовая глубина : 16 бит
Метод сжатия : С потерями
Размер потока : 67,6 Мбайт (3%)
Язык : Russian
ServiceKind/String : Complete Main
Default : Да
Forced : Нет

pb.wtf



Скачать Консультант через торрент https://d.radikal.ru/d39/1905/0e/d4a0ac996d0e.jpg Скачать фильм Консультант через торрент бесплантно в хорошем качестве Описание: В новых сериях психологического детектива Вячеславу Широкову и Олегу Брагину предстоит разгадать новую криминальную головоломку. ... 10 10 4
Торрент: Зарегистрирован [2019-05-24 21:06] · скачан: 43 раз
Статус: √ проверено
Размер: 21.32 GB
Как cкачать? Как скачать Консультант через торрент | qTorrent

% Раздел Тема Автор DL S | L
Наши сериалы [ 14.52 GB ] Консультант / Сезон: 2 / Серии: 1-10 из 10 [2019 WEB-DL 720p] bober100 Скачать
2 | 1
Наши сериалы [ 6.59 GB ] Консультант / Сезон: 2 / Серии: 1-10 из 10 [2019 SATRip] bober100 Скачать
1 | 0
Наши сериалы [ 6.21 GB ] Консультант / Сезон: 2 / Серии: 1-10 из 10 [2019 SATRip-AVC] aleksan55 Скачать
2 | 0
Наши сериалы [ 5.45 GB ] Консультант / Сезон: 2 / Серии: 1- 10 из 10 [2019 WEBRip] oleg8 Скачать
2 | 0

28-11-2019 20:33  

Отключить всю рекламу на сайте

    Дорогой пользователь! Огромная просьба, поблагодарите релизера, оцените раздачу и оставьте свои комментарий, если Вы скачали Консультант через торрент бесплатно! Внесите свою лепту в развитие PiratBit!
    Комментировать посты могут только пользователи прошедшие не сложную регистрацию
    Показать сообщения:    

    Консультант через торрент
    Скачать бесплатно Консультант
    Консультант скачать торрент
    Консультант смотреть онлайн
    Cкачать фильм Консультант бесплатно
    Консультант скачать торрент в хорошем качестве
    Консультант смотреть онлайн бесплатно в хорошем качестве


    Вы не можете начинать темы
    Вы не можете отвечать на сообщения
    Вы не можете редактировать свои сообщения
    Вы не можете удалять свои сообщения
    Вы не можете голосовать в опросах
    Вы не можете прикреплять файлы к сообщениям
    Вы можете скачивать файлы