2 сезон

iTunes

1 сезон

1

iTunes

iTunes

iTunes

1 сезон

RePack

30

ИГРА 18+

pack

ВАЖНО

!!Акция!!

Alien_RageХит недели

RePack

MK11
pack

Забери бонус

RePack

jed

!!Акция!!

Alien_Rage

RePack

fifa19

RePack

Assassins Creed: Odyssey

RePack

NEED FOR SPEED™ PAYBACK

4 сезон

9 сезон

Бесстыжие 9 сезон

Все сериалы

все сериалы на PB.wtf

RePack

FAR CRY 5
  

Опекун / Сезон: 1 / Серии: 1-16 из 16 (Карен Захаров) [2016, Детектив, HDTV 1080i] pb.wtf

Опекун через торрент pb.wtf

Размер: 42.84 GB | Добавлен: 1 год 5 мес. назад | Торрент скачан:4 раза
Скачать  

24-05-2019 21:54 Опекун Скачать торрент  

Опекун Год выпуска: 2016
Страна: Россия
Жанр: Детектив
Продолжительность: ~ 00:44:00
Перевод: не требуется
Субтитры: отсутствуют

Режиссер: Карен Захаров



В ролях:

Екатерина Климова, Гела Месхи, Анастасия Панина, Артур Ваха, Юрий Беляев, Юлия Галкина, Татьяна Мазур, Дмитрий Родонов, Виктор Конухин, Вероника Лысакова, Владимир Потапов, Софья Хилькова, Роман Синицын

Описание:

Из могилы героя русско-турецкой войны генерала Мещерякова похищены ордена, наградное золотое оружие и раритеты, представляющие материальную и историческую ценность. Распутать дело поручают майору полиции, начальнику следственного отдела РОВД Ольге Николаевой. Николаева опытна и хитра, но одинока, что беспокоит её мать. По дороге к ней Ольга попадает в странную аварию и получает травму головы. Очевидцем преступления становится молодой человек Иван (Гела Месхи). Он отвозит Ольгу в ближайшую больницу и загадочным образом исчезает.

Качество: HDTV 1080i
Формат: TS

Видео: 1920х1080 (16:9), 25 fps, AVC MPEG-4 (x264), High@L4.0 ~ 7900 kbps , 0.152 bit/pixel
Аудио: 48 kHz, MPEG Layer 2, 2 ch, ~ 192 kbps avg
скриншот  скриншот  скриншот  скриншот  

Общее
Идентификатор : 1 (0x1)
Полное имя : F:\Фильмы торренты\Opekun.2016.HDTV.(1080i).Nikolspup\Opekun.(01.seriya.iz.16)2016.HDTV.(1080i).Nikolspup.ts
Формат : MPEG-TS
Размер файла : 2,60 Гбайт
Продолжительность : 43 м. 54 с.
Режим общего битрейта : Переменный
Общий поток : 8480 Кбит/сек

Видео
Идентификатор : 67 (0x43)
Идентификатор меню : 1 (0x1)
Формат : AVC
Формат/Информация : Advanced Video Codec
Профиль формата : Main@L4
Параметр CABAC формата : Да
Параметр ReFrames формата : 2 кадра
Идентификатор кодека : 27
Продолжительность : 43 м. 54 с.
Битрейт : 7867 Кбит/сек
Ширина : 1920 пикселей
Высота : 1080 пикселей
Соотношение сторон : 16:9
Частота кадров : 25,000 кадров/сек
Цветовое пространство : YUV
Субдискретизация насыщенности : 4:2:0
Битовая глубина : 8 бит
Тип развёртки : MBAFF
Метод сохранения типа развёртки : Чередующиеся поля
Порядок развёртки : Верхнее поле первое
Бит/(Пиксели*Кадры) : 0.152
Размер потока : 2,41 Гбайт (93%)
Цветовой диапазон : Limited
Основные цвета : BT.709
Характеристики трансфера : BT.709
Коэффициенты матрицы : BT.709

Аудио
Идентификатор : 68 (0x44)
Идентификатор меню : 1 (0x1)
Формат : MPEG Audio
Версия формата : Version 1
Профиль формата : Layer 2
Идентификатор кодека : 3
Продолжительность : 43 м. 54 с.
Вид битрейта : Постоянный
Битрейт : 192 Кбит/сек
Каналы : 2 канала
Частота : 48,0 КГц
Метод сжатия : С потерями
Задержка видео : -80 мс.
Размер потока : 60,3 Мбайт (2%)
Язык : Russian

pb.wtf



Скачать Опекун через торрент http://i85.fastpic.ru/big/2016/1205/fd/7e26fdab156f42a38a2ec8c7149051fd.jpg Скачать фильм Опекун через торрент бесплантно в хорошем качестве Описание: Из могилы героя русско-турецкой войны генерала Мещерякова похищены ордена, наградное золотое оружие и раритеты, представляющие ... 10 10 3
Торрент: Зарегистрирован [2019-05-24 21:54] · скачан: 4 раз
Статус: √ проверено
Размер: 42.84 GB
Как cкачать? Как скачать Опекун через торрент | qTorrent

% Раздел Тема Автор DL S | L
Наши сериалы [ 9.52 GB ] Опекун / Сезон: 1 / Серии: 1-16 из 16 [2016 SATRip] bober100 Скачать
1 | 0

28-11-2019 20:33  

Отключить всю рекламу на сайте

    Дорогой пользователь! Огромная просьба, поблагодарите релизера, оцените раздачу и оставьте свои комментарий, если Вы скачали Опекун через торрент бесплатно! Внесите свою лепту в развитие PiratBit!
    Комментировать посты могут только пользователи прошедшие не сложную регистрацию
    Показать сообщения:    

    Опекун через торрент
    Скачать бесплатно Опекун
    Опекун скачать торрент
    Опекун смотреть онлайн
    Cкачать фильм Опекун бесплатно
    Опекун скачать торрент в хорошем качестве
    Опекун смотреть онлайн бесплатно в хорошем качестве


    Вы не можете начинать темы
    Вы не можете отвечать на сообщения
    Вы не можете редактировать свои сообщения
    Вы не можете удалять свои сообщения
    Вы не можете голосовать в опросах
    Вы не можете прикреплять файлы к сообщениям
    Вы можете скачивать файлы