Ссылка на приватное зеркало нашего сайта всего за 1$. Внимание количество ограничено!!!

2 сезон

iTunes

1 сезон

1

2 сезон

2 сезон

iTunes

1 сезон

RePack

30

Новинка

ВАЖНО

ИГРА 18+

pack

RePack

MK11
pack

Забери бонус

RePack

jed

!!Акция!!

Alien_Rage

RePack

fifa19

RePack

Assassins Creed: Odyssey

RePack

NEED FOR SPEED™ PAYBACK

4 сезон

9 сезон

Бесстыжие 9 сезон

Все сериалы

все сериалы на PB.wtf

RePack

FAR CRY 5
  

Что, если / What If / Сезон: 1 / Серии: 1-10 из 10 (Филлип Нойс, Джессика Борсицки, Мэгги Кили) [2019, триллер, драма, WEB-DL 720p] DUB [SDI Media] pb.wtf

Что, если через торрент pb.wtf

Размер: 10.03 GB | Добавлен: 1 год 6 мес. назад | Торрент скачан:40 раз
Скачать  

25-05-2019 05:51 Что, если Скачать торрент  

Что, если / What If Страна: США
Год выпуска: 2019
Производство: Netflix, Warner Bros. Television и др.
Жанр: триллер, драма
Продолжительность: ~00:55:00 серия
Перевод: Дублированный | SDI Media
Субтитры: русские (full(Netflix), forced), английские и другие.

Режиссёр: Филлип Нойс, Джессика Борсицки, Мэгги Кили

rating


В ролях:

Рене Зеллвегер, Дэйв Эннэйбл, Хуан Кастано, Блейк Дженнер, Джейн Леви, Даниэлла Пинеда, Кит Пауэрс, Луис Хертэм, Саамер Усмани

Описание:

Состоятельная немолодая женщина Анна делает паре молодоженов из Сан-Франциско, отчаянно нуждающихся в деньгах, крайне рискованное предложение. За их согласием следует целая вереница событий, которая приводит к самым неожиданным результатам. В центре событий оказываются не только главные герои, но и их близкие люди, друзья и коллеги.
Анна мастерски манипулирует людьми, и в итоге изначально положительные герои совершают некрасивые, а порой и подлые поступки.

Качество: WEB-DL 720p
Формат: MKV

Видео: MPEG4 AVC Video, H264, 16:9, 1280x720, 23.976 fps, ~1 800 kbps
Аудио: Russian (E-AC3, 6 ch, 640 kbps, 16 bits, 48.0 KHz) - Dub
Аудио 2: English (E-AC3, 6 ch, 640 kbps, 16 bits, 48.0 KHz) - оригинал
Релиз: BenderBEST@TeamHD
Релиз выполнен под спонсорством: unitedbits, n1ko1as.
Дубляж SDI Media:
Перевод: Алексей Игнаткин, Янина Костричкина
Роли дублировали: Татьяна Шитова, Ольга Зубкова, Александр Новиков, Анастасия Дубровина, Лина Иванова, Илья Хвостиков, Анна Киселёва, Антон Колесников, Александр Арзин, Александр Скиданов, Юлия Горохова, Олег Новиков и др.

скриншот  скриншот  скриншот  

Общее
Уникальный идентификатор : 175181168685366636970027134161271488956 (0x83CAAA74E8B4D8388793BD1E884581BC)
Полное имя : D:\Что, если. Сериал. 2019. DUB. EniaHD (WEB-DL 720p)\What.If.s01e01. Эпизод 1.mkv
Формат : Matroska
Версия формата : Version 2
Размер файла : 1,21 Гбайт
Продолжительность : 56 м. 59 с.
Режим общего битрейта : Переменный
Общий поток : 3029 Кбит/сек
Дата кодирования : UTC 2019-05-24 10:25:29
Программа кодирования : mkvmerge v6.9.1 ('Blue Panther') 32bit built on Apr 18 2014 18:15:44
Библиотека кодирования : libebml v1.3.0 + libmatroska v1.4.1

Видео
Идентификатор : 1
Формат : AVC
Формат/Информация : Advanced Video Codec
Профиль формата : Main@L3.1
Параметр CABAC формата : Да
Параметр RefFrames формата : 3 кадра
Идентификатор кодека : V_MPEG4/ISO/AVC
Продолжительность : 56 м. 59 с.
Вид битрейта : Переменный
Битрейт : 1689 Кбит/сек
Номинальный битрейт : 1780 Кбит/сек
Максимальный битрейт : 2670 Кбит/сек
Ширина : 1280 пикселей
Высота : 720 пикселей
Соотношение сторон : 16:9
Режим частоты кадров : Постоянный
Частота кадров : 23,976 (24000/1001) кадра/сек
Цветовое пространство : YUV
Субдискретизация насыщенности : 4:2:0
Битовая глубина : 8 бит
Тип развёртки : Прогрессивная
Бит/(Пиксели*Кадры) : 0.076
Размер потока : 689 Мбайт (56%)
Библиотека кодирования : x264 core 148 r2715 7e75228
Настройки программы : cabac=1 / ref=3 / deblock=1:0:0 / analyse=0x1:0x111 / me=umh / subme=10 / psy=1 / psy_rd=1.00:0.00 / mixed_ref=1 / me_range=24 / chroma_me=1 / trellis=2 / 8x8dct=0 / cqm=0 / deadzone=21,11 / fast_pskip=1 / chroma_qp_offset=-2 / threads=8 / lookahead_threads=1 / sliced_threads=0 / nr=0 / decimate=1 / interlaced=0 / bluray_compat=0 / stitchable=1 / constrained_intra=0 / bframes=2 / b_pyramid=0 / b_adapt=2 / b_bias=0 / direct=3 / weightb=1 / open_gop=0 / weightp=2 / keyint=48 / keyint_min=25 / scenecut=0 / intra_refresh=0 / rc_lookahead=48 / rc=2pass / mbtree=1 / bitrate=1780 / ratetol=1.0 / qcomp=0.50 / qpmin=6 / qpmax=51 / qpstep=4 / cplxblur=20.0 / qblur=0.5 / vbv_maxrate=2670 / vbv_bufsize=3560 / nal_hrd=vbr / filler=0 / ip_ratio=1.40 / aq=1:1.00
Язык : English
Default : Да
Forced : Нет

Аудио #1
Идентификатор : 2
Формат : AC-3
Формат/Информация : Audio Coding 3
Расширение режима : CM (complete main)
Параметр Endianness формата : Big
Идентификатор кодека : A_AC3
Продолжительность : 56 м. 59 с.
Вид битрейта : Постоянный
Битрейт : 640 Кбит/сек
Каналы : 6 каналов
Расположение каналов : Front: L C R, Side: L R, LFE
Частота : 48,0 КГц
Частота кадров : 31,250 кадров/сек (1536 spf)
Метод сжатия : С потерями
Размер потока : 261 Мбайт (21%)
Заголовок : Dub
Язык : Russian
Default : Да
Forced : Нет

Аудио #2
Идентификатор : 3
Формат : AC-3
Формат/Информация : Audio Coding 3
Расширение режима : CM (complete main)
Параметр Endianness формата : Big
Идентификатор кодека : A_AC3
Продолжительность : 56 м. 59 с.
Вид битрейта : Постоянный
Битрейт : 640 Кбит/сек
Каналы : 6 каналов
Расположение каналов : Front: L C R, Side: L R, LFE
Частота : 48,0 КГц
Частота кадров : 31,250 кадров/сек (1536 spf)
Метод сжатия : С потерями
Размер потока : 261 Мбайт (21%)
Язык : English
Default : Нет
Forced : Нет

Текст #1
Идентификатор : 4
Формат : UTF-8
Идентификатор кодека : S_TEXT/UTF8
Идентификатор кодека/Информация : UTF-8 Plain Text
Заголовок : Forced
Язык : Russian
Default : Да
Forced : Да

Текст #2
Идентификатор : 5
Формат : UTF-8
Идентификатор кодека : S_TEXT/UTF8
Идентификатор кодека/Информация : UTF-8 Plain Text
Язык : Russian
Default : Нет
Forced : Нет

Текст #3
Идентификатор : 6
Формат : UTF-8
Идентификатор кодека : S_TEXT/UTF8
Идентификатор кодека/Информация : UTF-8 Plain Text
Язык : English
Default : Нет
Forced : Нет

Текст #4
Идентификатор : 7
Формат : UTF-8
Идентификатор кодека : S_TEXT/UTF8
Идентификатор кодека/Информация : UTF-8 Plain Text
Язык : German
Default : Нет
Forced : Нет

Текст #5
Идентификатор : 8
Формат : UTF-8
Идентификатор кодека : S_TEXT/UTF8
Идентификатор кодека/Информация : UTF-8 Plain Text
Язык : French
Default : Нет
Forced : Нет

Текст #6
Идентификатор : 9
Формат : UTF-8
Идентификатор кодека : S_TEXT/UTF8
Идентификатор кодека/Информация : UTF-8 Plain Text
Язык : Italian
Default : Нет
Forced : Нет

Текст #7
Идентификатор : 10
Формат : UTF-8
Идентификатор кодека : S_TEXT/UTF8
Идентификатор кодека/Информация : UTF-8 Plain Text
Язык : Spanish
Default : Нет
Forced : Нет

Текст #8
Идентификатор : 11
Формат : UTF-8
Идентификатор кодека : S_TEXT/UTF8
Идентификатор кодека/Информация : UTF-8 Plain Text
Язык : Dutch
Default : Нет
Forced : Нет

Текст #9
Идентификатор : 12
Формат : UTF-8
Идентификатор кодека : S_TEXT/UTF8
Идентификатор кодека/Информация : UTF-8 Plain Text
Язык : Portuguese
Default : Нет
Forced : Нет

pb.wtf



Скачать Что, если через торрент https://i110.fastpic.ru/big/2019/0524/57/2072589f9014b40d5c80a7ae20bec357.jpg Скачать фильм Что, если через торрент бесплантно в хорошем качестве Описание: Состоятельная немолодая женщина Анна делает паре молодоженов из Сан-Франциско, отчаянно нуждающихся в деньгах, крайне рискованное ... 10 10 5
Торрент: Зарегистрирован [2019-05-25 05:51] · скачан: 40 раз
Статус: √ проверено
Размер: 10.03 GB
Как cкачать? Как скачать Что, если через торрент | qTorrent

% Раздел Тема Автор DL S | L
Зарубежные сериалы [ 57.37 GB ] Что/если / What/If / Сезон: 1 / Серии: 1-10 из 10 [2019 UHD WEB-DL 2160p] DUB [SDI Media] bober100 Скачать
1 | 0
Зарубежные сериалы [ 3.42 GB ] Что/если / What/If / Сезон: 1 / Серии: 1-2 из 10 [2019 WEB-DL 1080p] MVO [TVShows] bober100 Скачать
1 | 0
Зарубежные сериалы [ 8.21 GB ] Что если / What If / Сезон: 1 / Серии: 1-10 из 10 [2019 WEB-DLRip] [MVO] killermax2013 Скачать
1 | 0
Зарубежные сериалы [ 6.73 GB ] Что/если / What/If / Сезон: 1 / Серии: 1-10 из 10 [2019 WEB-DLRip] DUB [SDI Media] bober100 Скачать
1 | 0
Зарубежные сериалы [ 15.13 GB ] Что/если / What/If / Сезон: 1 / Серии: 1-10 из 10 [2019 WEB-DL 1080p] DUB [SDI Media] bober100 Скачать
1 | 0

28-11-2019 20:33  

Отключить всю рекламу на сайте

    Дорогой пользователь! Огромная просьба, поблагодарите релизера, оцените раздачу и оставьте свои комментарий, если Вы скачали Что, если через торрент бесплатно! Внесите свою лепту в развитие PiratBit!
    Комментировать посты могут только пользователи прошедшие не сложную регистрацию
    Показать сообщения:    

    Что, если через торрент
    Скачать бесплатно Что, если
    Что, если скачать торрент
    Что, если смотреть онлайн
    Cкачать фильм Что, если бесплатно
    Что, если скачать торрент в хорошем качестве
    Что, если смотреть онлайн бесплатно в хорошем качестве


    Вы не можете начинать темы
    Вы не можете отвечать на сообщения
    Вы не можете редактировать свои сообщения
    Вы не можете удалять свои сообщения
    Вы не можете голосовать в опросах
    Вы не можете прикреплять файлы к сообщениям
    Вы можете скачивать файлы