Ссылка на приватное зеркало нашего сайта всего за 1$. Внимание количество ограничено!!!

2 сезон

iTunes

iTunes

1

iTunes

iTunes

iTunes

WEBRip

iTunes

30
pack

Вам бонус

ВАЖНО

!!Акция!!

Alien_RageХит недели

RePack

Horizon Zero Dawn

ИГРА 18+

pack

RePack

jed

!!Акция!!

Alien_Rage

RePack

fifa19

RePack

Assassins Creed: Odyssey

RePack

NEED FOR SPEED™ PAYBACK

4 сезон

9 сезон

Бесстыжие 9 сезон

Все сериалы

все сериалы на PB.wtf

RePack

FAR CRY 5
  

Ритуалы вины / Rituals of Guilt (Ларри Кларк) [2018, драма, WEB-DL 720p] MVO ["Синема УС"] pb.wtf

Ритуалы вины через торрент pb.wtf

Размер: 3.42 GB | Добавлен: 1 год 3 мес. назад | Торрент скачан:1 раз
Скачать  

25-05-2019 06:34 Ритуалы вины Скачать торрент  

Ритуалы вины / Rituals of Guilt Год выпуска: 2018
Страна: США
Жанр: драма
Продолжительность: 01:28:01
Перевод: Любительский (многоголосый) | "Синема УС"
Субтитры: отсутствуют

Режиссер: Ларри Кларк

rating

В ролях: Ронрико Олбрайт, Дельвин Браун, Сильвестр Браун, Дон Коулман, Адриан Дент, Лавелл Мейс, Мирон Мейс, Наташа Дж. Онес, Аллоня Пейн, Трейси Редмонд

Описание: Молодая черная женщина тяжело переживает смерть своего первого мужа. Но представляла ли она, что вуду и страшные кошмары про его убийство могут загубить ее жизнь и привести к таким ужасным последствиям? Сможет ли она оправиться после этого и снова стать счастливой?

Качество: WEB-DL 720p
Формат: MKV
Видео: h.264, 5171 Кбит/с, 1280x720
Аудио#1: Русский, (AC3, 2 ch, 384 Кбит/с)
скриншот  скриншот  скриншот  

Общее
Уникальный идентификатор : 175837296961411298494837796515715971174 (0x844908140AA0D46B9ACD2B208D877866)
Полное имя : D:\Rituals.of.guilt.2018.P.WEB-DL.72Op.mkv
Формат : Matroska
Версия формата : Version 2
Размер файла : 3,42 Гбайт
Продолжительность : 1 ч. 28 м.
Режим общего битрейта : Переменный
Общий поток : 5557 Кбит/сек
Дата кодирования : UTC 2019-05-24 02:27:19
Программа кодирования : mkvmerge v8.3.0 ('Over the Horizon') 64bit
Библиотека кодирования : libebml v1.3.1 + libmatroska v1.4.2

Видео
Идентификатор : 1
Формат : AVC
Формат/Информация : Advanced Video Codec
Профиль формата : High@L4.1
Параметр CABAC формата : Да
Параметр RefFrames формата : 4 кадра
Идентификатор кодека : V_MPEG4/ISO/AVC
Продолжительность : 1 ч. 28 м.
Вид битрейта : Переменный
Битрейт : 5171 Кбит/сек
Максимальный битрейт : 6000 Кбит/сек
Ширина : 1280 пикселей
Высота : 720 пикселей
Соотношение сторон : 16:9
Режим частоты кадров : Постоянный
Частота кадров : 23,976 (24000/1001) кадра/сек
Стандарт вещания : Component
Цветовое пространство : YUV
Субдискретизация насыщенности : 4:2:0
Битовая глубина : 8 бит
Тип развёртки : Прогрессивная
Бит/(Пиксели*Кадры) : 0.229
Размер потока : 3,11 Гбайт (91%)
Default : Да
Forced : Нет
Цветовой диапазон : Limited
Основные цвета : BT.709
Характеристики трансфера : BT.709
Коэффициенты матрицы : BT.709

Аудио
Идентификатор : 2
Формат : AC-3
Формат/Информация : Audio Coding 3
Расширение режима : CM (complete main)
Параметр Endianness формата : Big
Идентификатор кодека : A_AC3
Продолжительность : 1 ч. 28 м.
Вид битрейта : Постоянный
Битрейт : 384 Кбит/сек
Каналы : 2 канала
Расположение каналов : Front: L R
Частота : 48,0 КГц
Частота кадров : 31,250 кадров/сек (1536 spf)
Метод сжатия : С потерями
Размер потока : 242 Мбайт (7%)
Default : Да
Forced : Нет

pb.wtf



Скачать Ритуалы вины через торрент https://b.radikal.ru/b40/1905/02/7e4f190dbfed.jpg Скачать фильм Ритуалы вины через торрент бесплантно в хорошем качестве Описание: Молодая черная женщина тяжело переживает смерть своего первого мужа. Но представляла ли она, что вуду и страшные кошмары про его ... 10 10 2
Торрент: Зарегистрирован [2019-05-25 06:34] · скачан: 1 раз
Статус: T временная
Размер: 3.42 GB
Как cкачать? Как скачать Ритуалы вины через торрент | qTorrent

% Раздел Тема Автор DL S | L
T Фильмы (мультфильмы) cо спонсором показа (Новинки AVI/MKV) [ 1.37 GB ] Ритуалы вины / Rituals of Guilt [2018 WEB-DLRip] MVO ["Синема УС"] bober100 Скачать
1 | 0

28-11-2019 20:33  

Отключить всю рекламу на сайте

    Дорогой пользователь! Огромная просьба, поблагодарите релизера, оцените раздачу и оставьте свои комментарий, если Вы скачали Ритуалы вины через торрент бесплатно! Внесите свою лепту в развитие PiratBit!
    Комментировать посты могут только пользователи прошедшие не сложную регистрацию
    Показать сообщения:    

    Ритуалы вины через торрент
    Скачать бесплатно Ритуалы вины
    Ритуалы вины скачать торрент
    Ритуалы вины смотреть онлайн
    Cкачать фильм Ритуалы вины бесплатно
    Ритуалы вины скачать торрент в хорошем качестве
    Ритуалы вины смотреть онлайн бесплатно в хорошем качестве


    Вы не можете начинать темы
    Вы не можете отвечать на сообщения
    Вы не можете редактировать свои сообщения
    Вы не можете удалять свои сообщения
    Вы не можете голосовать в опросах
    Вы не можете прикреплять файлы к сообщениям
    Вы можете скачивать файлы