Ссылка на приватное зеркало всего за 1$. Внимание количество ограничено!!!

OK

1+1

iTunes

мы

OK

1

WEB-DLRip

Джокер

Пифагор

Ведьмак / The Witcher сериал

Лицензия

ПШазам

ОК

Оно 2

iTunes

30
pack

Вам бонус

ВАЖНО

!!Акция!!

Alien_RageХит недели

RePack

Resident Evil 21

ИГРА 18+

pack

RePack

jed

RePack

fifa19

RePack

Assassins Creed: Odyssey

RePack

NEED FOR SPEED™ PAYBACK

4 сезон

9 сезон

Бесстыжие 9 сезон

Все сериалы

все сериалы на PB.wtf

RePack

FAR CRY 5
  

Белый лебедь / Sonja: The White Swan (Анне Севитски) [2018, драма, BDRip 720p] DUB [Line] pb.wtf

Белый лебедь через торрент pb.wtf

Размер: 5.72 GB | Добавлен: 7 мес. назад | Торрент скачан:9 раз
Скачать  

25-05-2019 06:51 Белый лебедь Скачать торрент  

Белый лебедь / Sonja: The White Swan
Год выпуска: 2018
Страна: Норвегия
Жанр: драма
Продолжительность: 01:55:21
Перевод: Дублированный | Line
Субтитры: отсутствуют

Режиссер: Анне Севитски

rating

В ролях:

Ине Марие Вильман, Валин Кэйн, Эльдар Скар, Андерс Мордал, Аннеке фон Дер Липпе, Эйдан МакАрдл, Малкольм Адамс, Пол Сверре Валхейм Хаген, Хью О Конор, Густаво Рохо

Описание:

Трехкратная олимпийская чемпионка, голливудская дива, икона, самая богатая женщина своего времени - Соня Хени была легендой. Она покорила Голливуд и купалась в деньгах, но у славы есть цена.

Качество: BDRip 720p
Формат: MKV

Видео: h.264, 6653 Кбит/с, 1280x536
Аудио: Русский (AC3, 2 ch, 448 Кбит/с)
скриншот  скриншот  скриншот  

Общее
Уникальный идентификатор : 178841565359273937191612893407013360263 (0x868BA1F23F528CE0A51CEA5F7671D287)
Полное имя : D:\Sonja.2018.D.BDRip.72Op.mkv
Формат : Matroska
Версия формата : Version 2
Размер файла : 5,72 Гбайт
Продолжительность : 1 ч. 55 м.
Режим общего битрейта : Переменный
Общий поток : 7103 Кбит/сек
Дата кодирования : UTC 2019-05-24 00:21:02
Программа кодирования : mkvmerge v8.3.0 ('Over the Horizon') 64bit
Библиотека кодирования : libebml v1.3.1 + libmatroska v1.4.2

Видео
Идентификатор : 1
Формат : AVC
Формат/Информация : Advanced Video Codec
Профиль формата : High@L4.1
Параметр CABAC формата : Да
Параметр RefFrames формата : 4 кадра
Идентификатор кодека : V_MPEG4/ISO/AVC
Продолжительность : 1 ч. 55 м.
Вид битрейта : Переменный
Битрейт : 6653 Кбит/сек
Максимальный битрейт : 7500 Кбит/сек
Ширина : 1280 пикселей
Высота : 536 пикселей
Соотношение сторон : 2,40:1
Режим частоты кадров : Постоянный
Частота кадров : 23,976 (24000/1001) кадра/сек
Стандарт вещания : Component
Цветовое пространство : YUV
Субдискретизация насыщенности : 4:2:0
Битовая глубина : 8 бит
Тип развёртки : Прогрессивная
Бит/(Пиксели*Кадры) : 0.396
Размер потока : 5,25 Гбайт (92%)
Default : Да
Forced : Нет
Цветовой диапазон : Limited
Основные цвета : BT.709
Характеристики трансфера : BT.709
Коэффициенты матрицы : BT.709

Аудио
Идентификатор : 2
Формат : AC-3
Формат/Информация : Audio Coding 3
Расширение режима : CM (complete main)
Параметр Endianness формата : Big
Идентификатор кодека : A_AC3
Продолжительность : 1 ч. 55 м.
Вид битрейта : Постоянный
Битрейт : 448 Кбит/сек
Каналы : 2 канала
Расположение каналов : Front: L R
Частота : 48,0 КГц
Частота кадров : 31,250 кадров/сек (1536 spf)
Метод сжатия : С потерями
Размер потока : 370 Мбайт (6%)
Default : Да
Forced : Нет

pb.wtf



Скачать Белый лебедь через торрент https://c.radikal.ru/c31/1905/40/4df8f205dda6.jpg Скачать фильм Белый лебедь через торрент бесплантно в хорошем качестве Описание: Трехкратная олимпийская чемпионка, голливудская дива, икона, самая богатая женщина своего времени - Соня Хени была легендой. Она ... 10 10 2
Торрент: Зарегистрирован [2019-05-25 06:51] · скачан: 9 раз
Статус: # сомнительно
Размер: 5.72 GB
Как cкачать? Как скачать Белый лебедь через торрент | qTorrent

% Раздел Тема Автор DL S | L
Фильмы 2018 [DVDrip, WEB-DLRip, HDrip] (DUB, MVO) [ 1.46 GB ] Белый лебедь / Sonja: The White Swan [2018 HDRip] killermax2013 Скачать
4 | 0
T Фильмы (мультфильмы) cо спонсором показа (Новинки AVI/MKV) [ 10.25 GB ] Белый лебедь / Sonja: The White Swan [2018 BDRip 1080p] DUB [Line] bober100 Скачать
1 | 0
T Фильмы (мультфильмы) cо спонсором показа (Новинки AVI/MKV) [ 2.05 GB ] Белый лебедь / Sonja: The White Swan [2018 HDRip] DUB [Line] bober100 Скачать
1 | 0
T Фильмы (мультфильмы) cо спонсором показа (Новинки AVI/MKV) [ 1.37 GB ] Белый лебедь / Sonja: The White Swan [2018 HDRip] DUB [Line] bober100 Скачать
1 | 0

28-11-2019 20:33  

Отключить всю рекламу на сайте

    Дорогой пользователь! Огромная просьба, поблагодарите релизера, оцените раздачу и оставьте свои комментарий, если Вы скачали Белый лебедь через торрент бесплатно! Внесите свою лепту в развитие PiratBit!
    Комментировать посты могут только пользователи прошедшие не сложную регистрацию
    Показать сообщения:    

    Белый лебедь через торрент
    Скачать бесплатно Белый лебедь
    Белый лебедь скачать торрент
    Белый лебедь смотреть онлайн
    Cкачать фильм Белый лебедь бесплатно
    Белый лебедь скачать торрент в хорошем качестве
    Белый лебедь смотреть онлайн бесплатно в хорошем качестве


    Вы не можете начинать темы
    Вы не можете отвечать на сообщения
    Вы не можете редактировать свои сообщения
    Вы не можете удалять свои сообщения
    Вы не можете голосовать в опросах
    Вы не можете прикреплять файлы к сообщениям
    Вы можете скачивать файлы