Ссылка на приватное зеркало всего за 1$. Внимание количество ограничено!!!

OK

1+1

iTunes

мы

OK

1

WEB-DLRip

Джокер

Пифагор

Ведьмак / The Witcher сериал

iTunes

ПШазам

ОК

Оно 2

iTunes

30
pack

Вам бонус

ВАЖНО

!!Акция!!

Alien_RageХит недели

RePack

Resident Evil 21

ИГРА 18+

pack

RePack

jed

RePack

fifa19

RePack

Assassins Creed: Odyssey

RePack

NEED FOR SPEED™ PAYBACK

4 сезон

9 сезон

Бесстыжие 9 сезон

Все сериалы

все сериалы на PB.wtf

RePack

FAR CRY 5
  

Тай Синь / Tai Xian (Седрик Анже) [2018, Триллер, WEB-DL 720p] MVO [КОЛОБОК] pb.wtf

Тай Синь через торрент pb.wtf

Размер: 3.17 GB | Добавлен: 8 мес. назад | Торрент скачан:6 раз
Скачать  

25-05-2019 07:08 Тай Синь Скачать торрент  

Тай Синь / Tai XianГод выпуска: 2018
Страна: Китай
Жанр: Триллер
Продолжительность: 01:20:48
Перевод: Любительский (многоголосый) | КОЛОБОК
Субтитры: отсутствуют

Режиссер: Седрик Анже



В ролях: Ло Сян, Лю Шухань, Е Чанцин, Цзэн Юйлянь, Лю Вэй

Описание: Компания старшеклассников отправляется на выходные за город, но сломавшаяся машина рушит их планы на отдых. В итоге им приходится ночевать в заброшенном доме, где они затевают казалось бы совсем несерьезную игру. Но очень скоро безобидный спиритический сеанс превращается в цепочку жутких и непредсказуемых последствий..

Качество: WEB-DL 720p
Формат: MKV

Видео: h.264, 5222 Кбит/с, 1280x544
Аудио: Русский, (AC3, 2 ch, 384 Кбит/с)
скриншот  скриншот  скриншот  

Общее
Уникальный идентификатор : 177995444652248911526784563157943152659 (0x85E8ACF97F57C9E8B043B1D60FE77013)
Полное имя : D:\Tai.Xian.2018.Pk.WEB-DL.72Op.mkv
Формат : Matroska
Версия формата : Version 2
Размер файла : 3,17 Гбайт
Продолжительность : 1 ч. 20 м.
Режим общего битрейта : Переменный
Общий поток : 5608 Кбит/сек
Дата кодирования : UTC 2019-05-24 00:25:20
Программа кодирования : mkvmerge v8.3.0 ('Over the Horizon') 64bit
Библиотека кодирования : libebml v1.3.1 + libmatroska v1.4.2

Видео
Идентификатор : 1
Формат : AVC
Формат/Информация : Advanced Video Codec
Профиль формата : High@L4.1
Параметр CABAC формата : Да
Параметр RefFrames формата : 4 кадра
Идентификатор кодека : V_MPEG4/ISO/AVC
Продолжительность : 1 ч. 20 м.
Вид битрейта : Переменный
Битрейт : 5222 Кбит/сек
Максимальный битрейт : 6000 Кбит/сек
Ширина : 1280 пикселей
Высота : 544 пикселя
Соотношение сторон : 2,35:1
Режим частоты кадров : Постоянный
Частота кадров : 23,976 (24000/1001) кадра/сек
Стандарт вещания : Component
Цветовое пространство : YUV
Субдискретизация насыщенности : 4:2:0
Битовая глубина : 8 бит
Тип развёртки : Прогрессивная
Бит/(Пиксели*Кадры) : 0.306
Размер потока : 2,89 Гбайт (91%)
Default : Да
Forced : Нет
Цветовой диапазон : Limited
Основные цвета : BT.709
Характеристики трансфера : BT.709
Коэффициенты матрицы : BT.709

Аудио
Идентификатор : 2
Формат : AC-3
Формат/Информация : Audio Coding 3
Расширение режима : CM (complete main)
Параметр Endianness формата : Big
Идентификатор кодека : A_AC3
Продолжительность : 1 ч. 20 м.
Вид битрейта : Постоянный
Битрейт : 384 Кбит/сек
Каналы : 2 канала
Расположение каналов : Front: L R
Частота : 48,0 КГц
Частота кадров : 31,250 кадров/сек (1536 spf)
Метод сжатия : С потерями
Размер потока : 222 Мбайт (7%)
Default : Да
Forced : Нет

pb.wtf



Скачать Тай Синь через торрент https://funkyimg.com/i/2UahX.jpg Скачать фильм Тай Синь через торрент бесплантно в хорошем качестве Описание: Компания старшеклассников отправляется на выходные за город, но сломавшаяся машина рушит их планы на отдых. В итоге им приходится ... 10 10 3
Торрент: Зарегистрирован [2019-05-25 07:08] · скачан: 6 раз
Статус: T временная
Размер: 3.17 GB
Как cкачать? Как скачать Тай Синь через торрент | qTorrent

% Раздел Тема Автор DL S | L
T Фильмы (мультфильмы) cо спонсором показа (Новинки AVI/MKV) [ 1.37 GB ] Тай Синь / Tai Xian [2018 WEB-DLRip] MVO [КОЛОБОК] bober100 Скачать
1 | 0

28-11-2019 20:33  

Отключить всю рекламу на сайте

    Дорогой пользователь! Огромная просьба, поблагодарите релизера, оцените раздачу и оставьте свои комментарий, если Вы скачали Тай Синь через торрент бесплатно! Внесите свою лепту в развитие PiratBit!
    Комментировать посты могут только пользователи прошедшие не сложную регистрацию
    Показать сообщения:    

    Тай Синь через торрент
    Скачать бесплатно Тай Синь
    Тай Синь скачать торрент
    Тай Синь смотреть онлайн
    Cкачать фильм Тай Синь бесплатно
    Тай Синь скачать торрент в хорошем качестве
    Тай Синь смотреть онлайн бесплатно в хорошем качестве


    Вы не можете начинать темы
    Вы не можете отвечать на сообщения
    Вы не можете редактировать свои сообщения
    Вы не можете удалять свои сообщения
    Вы не можете голосовать в опросах
    Вы не можете прикреплять файлы к сообщениям
    Вы можете скачивать файлы