Ссылка на приватное зеркало всего за 1$. Внимание количество ограничено!!!

OK

1+1

iTunes

мы

OK

1

WEB-DLRip

Джокер

Пифагор

Ведьмак / The Witcher сериал

iTunes

ПШазам

ОК

Оно 2

iTunes

30
pack

Вам бонус

ВАЖНО

!!Акция!!

Alien_RageХит недели

RePack

Resident Evil 21

ИГРА 18+

pack

RePack

jed

RePack

fifa19

RePack

Assassins Creed: Odyssey

RePack

NEED FOR SPEED™ PAYBACK

4 сезон

9 сезон

Бесстыжие 9 сезон

Все сериалы

все сериалы на PB.wtf

RePack

FAR CRY 5
  

Заговор на острове Джекилл / Jekyll Island (Арам Раппапорт) [2017, триллер, криминал, BDRip 720p] MVO [Официальный звук] pb.wtf

Заговор на острове Джекилл через торрент pb.wtf

Размер: 4.32 GB | Добавлен: 8 мес. назад | Торрент скачан:22 раза
Скачать  

25-05-2019 10:01 Заговор на острове Джекилл Скачать торрент  

Заговор на острове Джекилл / Jekyll Island
Год выпуска: 2017
Страна: США
Жанр: триллер, криминал
Продолжительность: 01:26:36
Перевод: Профессиональный (многоголосый) | Официальный звук
Субтитры: отсутствуют

Режиссер: Арам Раппапорт

rating

В ролях:

Фрэнк Грилло, Минни Драйвер, Анна-София Робб, Дианна Агрон, Мэри МакКормак, Кристофер Макдональд, Эд Вествик, Джон Легуизамо, Джим Ортлиб, Шеннон Браун

Описание:

Министр финансов США просит бывшего сотрудника Уолл-стрит помочь в отражении кибератаки, угрожающей уничтожить американскую экономику. Он с помощью жены привлекает команду неудачников и готовит их к спасению мира от экономического коллапса.

Качество: BDRip 720p
Формат: MKV

Видео: h.264, 6555 Кбит/с, 1280x544
Аудио: Русский (AC3, 2 ch, 448 Кбит/с)
скриншот  скриншот  скриншот  

Общее
Уникальный идентификатор : 185539286853652838986630819104581824075 (0x8B95911C80C0785EAA3F48C431092E4B)
Полное имя : D:\The.Crash.2017.Pof.BDRip.72Op.mkv
Формат : Matroska
Версия формата : Version 2
Размер файла : 4,32 Гбайт
Продолжительность : 1 ч. 26 м.
Режим общего битрейта : Переменный
Общий поток : 7146 Кбит/сек
Дата кодирования : UTC 2019-05-24 00:40:15
Программа кодирования : mkvmerge v8.3.0 ('Over the Horizon') 64bit
Библиотека кодирования : libebml v1.3.1 + libmatroska v1.4.2

Видео
Идентификатор : 1
Формат : AVC
Формат/Информация : Advanced Video Codec
Профиль формата : High@L4.1
Параметр CABAC формата : Да
Параметр RefFrames формата : 4 кадра
Идентификатор кодека : V_MPEG4/ISO/AVC
Продолжительность : 1 ч. 26 м.
Вид битрейта : Переменный
Битрейт : 6555 Кбит/сек
Максимальный битрейт : 7500 Кбит/сек
Ширина : 1280 пикселей
Высота : 534 пикселя
Соотношение сторон : 2,40:1
Режим частоты кадров : Постоянный
Частота кадров : 23,976 (24000/1001) кадра/сек
Стандарт вещания : Component
Цветовое пространство : YUV
Субдискретизация насыщенности : 4:2:0
Битовая глубина : 8 бит
Тип развёртки : Прогрессивная
Бит/(Пиксели*Кадры) : 0.400
Размер потока : 3,97 Гбайт (92%)
Default : Да
Forced : Нет
Цветовой диапазон : Limited
Основные цвета : BT.709
Характеристики трансфера : BT.709
Коэффициенты матрицы : BT.709

Аудио
Идентификатор : 2
Формат : AC-3
Формат/Информация : Audio Coding 3
Расширение режима : CM (complete main)
Параметр Endianness формата : Big
Идентификатор кодека : A_AC3
Продолжительность : 1 ч. 26 м.
Вид битрейта : Постоянный
Битрейт : 448 Кбит/сек
Каналы : 2 канала
Расположение каналов : Front: L R
Частота : 48,0 КГц
Частота кадров : 31,250 кадров/сек (1536 spf)
Метод сжатия : С потерями
Размер потока : 278 Мбайт (6%)
Default : Да
Forced : Нет

pb.wtf



Скачать Заговор на острове Джекилл через торрент http://pic1.kartinco.top/images/11/32udi.jpg Скачать фильм Заговор на острове Джекилл через торрент бесплантно в хорошем качестве Описание: Министр финансов США просит бывшего сотрудника Уолл-стрит помочь в отражении кибератаки, угрожающей уничтожить американскую ... 10 10 3
Торрент: Зарегистрирован [2019-05-25 10:01] · скачан: 22 раз
Статус: # сомнительно
Размер: 4.32 GB
Как cкачать? Как скачать Заговор на острове Джекилл через торрент | qTorrent

% Раздел Тема Автор DL S | L
T Фильмы (мультфильмы) cо спонсором показа (Новинки AVI/MKV) [ 1.37 GB ] Заговор на острове Джекилл / Jekyll Island [2017 HDRip] MVO [Официальный звук] bober100 Скачать
1 | 0

28-11-2019 20:33  

Отключить всю рекламу на сайте

    Дорогой пользователь! Огромная просьба, поблагодарите релизера, оцените раздачу и оставьте свои комментарий, если Вы скачали Заговор на острове Джекилл через торрент бесплатно! Внесите свою лепту в развитие PiratBit!
    Комментировать посты могут только пользователи прошедшие не сложную регистрацию
    Показать сообщения:    

    Заговор на острове Джекилл через торрент
    Скачать бесплатно Заговор на острове Джекилл
    Заговор на острове Джекилл скачать торрент
    Заговор на острове Джекилл смотреть онлайн
    Cкачать фильм Заговор на острове Джекилл бесплатно
    Заговор на острове Джекилл скачать торрент в хорошем качестве
    Заговор на острове Джекилл смотреть онлайн бесплатно в хорошем качестве


    Вы не можете начинать темы
    Вы не можете отвечать на сообщения
    Вы не можете редактировать свои сообщения
    Вы не можете удалять свои сообщения
    Вы не можете голосовать в опросах
    Вы не можете прикреплять файлы к сообщениям
    Вы можете скачивать файлы