2 сезон

iTunes

MVO

1

2 сезон

iTunes

iTunes

1 сезон

RePack

30

Новинка

ВАЖНО

ИГРА 18+

pack

RePack

MK11
pack

Легкие деньги

RePack

jed

RePack

fifa19

RePack

RDR2

RePack

NEED FOR SPEED™ PAYBACK

4 сезон

9 сезон

Бесстыжие 9 сезон

Все сериалы

все сериалы на PB.wtf

RePack

FAR CRY 5

Anonymous, добрый вечер, мы не успеваем собрать деньги на оплату серверов за декабрь и январь, помогите нам пожалуйста в это трудное время. В качестве благодарности мы отключим Вам всю рекламу на сайте (укажите свой ник в строку Ваше имя)!

×
  
Magnet ссылка

Бок о бок / Торговый пункт / Trading Paint (Каржан Кадер) [2019, боевик, BDRip 1080p] MVO [HDrezka Studio] pb.wtf

Бок о бок через торрент pb.wtf

Размер: 7.16 GB | Добавлен: 1 год 7 мес. назад | Торрент скачан:88 раз
Скачать  

25-05-2019 11:32 Бок о бок Скачать торрент  

Бок о бок / Торговый пункт / Trading Paint Год выпуска: 2019
Страна: Испания, США
Жанр: боевик
Продолжительность: 01:27:14
Перевод: Профессиональный (многоголосый) | HDRezka Studio
Субтитры: Английские (*srt, *pgs), испанские (*pgs)

Режиссер: Каржан Кадер

rating

В ролях:

Джон Траволта, Розабелла Лауренти Селлерс, Майкл Мэдсен, Бэрри Корбин, Шенайя Твейн, Кевин Данн, Бак Тейлор, Тоби Себастьян, Луис Да Силва мл., Джен Бэйкер

Описание:

Заслуженный автогонщик Сэм Манро и его сын, такой же гонщик из маленького городка, решают свои семейные и профессиональные проблемы, балансируя между конкуренцией, эго, обидой и враждой с соперником в гонках, чтобы стать сильнее в других сферах жизни.

Качество: BDRip 1080p
Формат: MKV

Видео: MPEG-4 AVC, 10000 Kбит/с, 1920x800, 23.976 кадр/с
Аудио#1: Русский ( АС3, 2ch, 192 Кбит/с, 48.0 KHz) Профессиональный (многоголосый, закадровый) HDRezka Studio
Аудио#2: Английский (DTS, 6ch, 1509 Кбит/с, 48.0 KHz)
скриншот  скриншот  скриншот  скриншот  

Источник: Trading.Paint.2019.COMPLETE.BLURAY-CiNEMATiC
General
Unique ID : 224877136661199898074116972338425327021 (0xA92DC2D970E63F94B3D2CF6D578B6DAD)
Complete name : Trading.Paint.2019.BDRip.1080p.mkv
Format : Matroska
Format version : Version 4
File size : 7.16 GiB
Duration : 1 h 27 min
Overall bit rate : 11.7 Mb/s
Encoded date : UTC 2019-05-24 12:52:41
Writing application : mkvmerge v7.1.0 ('Good Love') 64bit built on Jul 27 2014 13:06:55
Writing library : libebml v1.3.0 + libmatroska v1.4.1

Video
ID : 1
Format : AVC
Format/Info : Advanced Video Codec
Format profile : High@L4.1
Format settings : CABAC / 5 Ref Frames
Format settings, CABAC : Yes
Format settings, ReFrames : 5 frames
Codec ID : V_MPEG4/ISO/AVC
Duration : 1 h 27 min
Bit rate : 10 000 kb/s
Width : 1 920 pixels
Height : 800 pixels
Display aspect ratio : 2.40:1
Frame rate mode : Constant
Frame rate : 23.976 (24000/1001) FPS
Color space : YUV
Chroma subsampling : 4:2:0
Bit depth : 8 bits
Scan type : Progressive
Bits/(Pixel*Frame) : 0.272
Stream size : 6.09 GiB (85%)
Writing library : x264 core 148 r2638 7599210
Encoding settings : cabac=1 / ref=5 / deblock=1:-3:-3 / analyse=0x3:0x133 / me=umh / subme=11 / psy=1 / psy_rd=1.00:0.20 / mixed_ref=1 / me_range=48 / chroma_me=1 / trellis=2 / 8x8dct=1 / cqm=0 / deadzone=21,11 / fast_pskip=1 / chroma_qp_offset=-3 / threads=6 / lookahead_threads=1 / sliced_threads=0 / nr=0 / decimate=1 / interlaced=0 / bluray_compat=0 / constrained_intra=0 / bframes=10 / b_pyramid=2 / b_adapt=2 / b_bias=0 / direct=3 / weightb=1 / open_gop=0 / weightp=2 / keyint=250 / keyint_min=23 / scenecut=40 / intra_refresh=0 / rc_lookahead=60 / rc=2pass / mbtree=1 / bitrate=10000 / ratetol=1.0 / qcomp=0.60 / qpmin=0 / qpmax=69 / qpstep=4 / cplxblur=20.0 / qblur=0.5 / ip_ratio=1.40 / aq=1:1.00
Language : English
Default : Yes
Forced : No

Audio #1
ID : 2
Format : AC-3
Format/Info : Audio Coding 3
Commercial name : Dolby Digital
Codec ID : A_AC3
Duration : 1 h 27 min
Bit rate mode : Constant
Bit rate : 192 kb/s
Channel(s) : 2 channels
Channel layout : L R
Sampling rate : 48.0 kHz
Frame rate : 31.250 FPS (1536 SPF)
Bit depth : 16 bits
Compression mode : Lossy
Stream size : 120 MiB (2%)
Title : MVO | HDRezka Studio
Language : Russian
Service kind : Complete Main
Default : Yes
Forced : No

Audio #2
ID : 3
Format : DTS
Format/Info : Digital Theater Systems
Codec ID : A_DTS
Duration : 1 h 27 min
Bit rate mode : Constant
Bit rate : 1 509 kb/s
Channel(s) : 6 channels
Channel layout : C L R Ls Rs LFE
Sampling rate : 48.0 kHz
Frame rate : 93.750 FPS (512 SPF)
Bit depth : 24 bits
Compression mode : Lossy
Stream size : 942 MiB (13%)
Language : English
Default : No
Forced : No

Text #1
ID : 4
Format : UTF-8
Codec ID : S_TEXT/UTF8
Codec ID/Info : UTF-8 Plain Text
Duration : 1 h 24 min
Bit rate : 69 b/s
Count of elements : 1085
Stream size : 43.1 KiB (0%)
Language : English
Default : No
Forced : No

Text #2
ID : 5
Format : PGS
Muxing mode : zlib
Codec ID : S_HDMV/PGS
Codec ID/Info : Picture based subtitle format used on BDs/HD-DVDs
Duration : 1 h 24 min
Bit rate : 24.8 kb/s
Count of elements : 2408
Stream size : 14.9 MiB (0%)
Language : English
Default : No
Forced : No

Text #3
ID : 6
Format : PGS
Muxing mode : zlib
Codec ID : S_HDMV/PGS
Codec ID/Info : Picture based subtitle format used on BDs/HD-DVDs
Duration : 1 h 25 min
Bit rate : 19.1 kb/s
Count of elements : 1988
Stream size : 11.7 MiB (0%)
Language : Spanish
Default : No
Forced : No

Menu
00:00:00.000 : en:Chapter 1
00:06:09.410 : en:Chapter 2
00:09:57.179 : en:Chapter 3
00:15:44.026 : en:Chapter 4
00:20:36.610 : en:Chapter 5
00:26:46.563 : en:Chapter 6
00:33:00.645 : en:Chapter 7
00:38:24.885 : en:Chapter 8
00:42:32.007 : en:Chapter 9
00:45:46.034 : en:Chapter 10
00:49:54.950 : en:Chapter 11
00:55:05.593 : en:Chapter 12
01:00:53.107 : en:Chapter 13
01:04:55.933 : en:Chapter 14
01:08:54.338 : en:Chapter 15
01:12:28.302 : en:Chapter 16

pb.wtf



Скачать Бок о бок через торрент https://i5.imageban.ru/out/2019/03/07/2a2d4045ea537bee32f231129d68c57c.png Скачать фильм Бок о бок через торрент бесплантно в хорошем качестве Описание: Заслуженный автогонщик Сэм Манро и его сын, такой же гонщик из маленького городка, решают свои семейные и профессиональные ... 10 10 5
Торрент: Зарегистрирован [2019-05-25 11:32] · скачан: 88 раз
Статус: T временная
Размер: 7.16 GB
Как cкачать? Как скачать Бок о бок через торрент | UTorrent

% Раздел Тема Автор DL S | L
T Фильмы 2019-2020 [DVDrip, WEB-DLRip, HDrip] (DUB, MVO) [ 1.49 GB ] Бок о бок / Торговый пункт / Trading Paint [2019 BDRip-AVC] MVO [HDRezka Studio] - ExKinoRay Enigma2010 Скачать
171 | 4

28-11-2019 20:33  

Отключить всю рекламу на сайте

    Дорогой пользователь! Огромная просьба, поблагодарите релизера, оцените раздачу и оставьте свои комментарий, если Вы скачали Бок о бок через торрент бесплатно! Внесите свою лепту в развитие PiratBit!
    Комментировать посты могут только пользователи прошедшие не сложную регистрацию
    Показать сообщения:    

    Бок о бок через торрент
    Скачать бесплатно Бок о бок
    Бок о бок скачать торрент
    Бок о бок смотреть онлайн
    Cкачать фильм Бок о бок бесплатно
    Бок о бок скачать торрент в хорошем качестве
    Бок о бок смотреть онлайн бесплатно в хорошем качестве


    Вы не можете начинать темы
    Вы не можете отвечать на сообщения
    Вы не можете редактировать свои сообщения
    Вы не можете удалять свои сообщения
    Вы не можете голосовать в опросах
    Вы не можете прикреплять файлы к сообщениям
    Вы можете скачивать файлы