Ссылка на приватное зеркало всего за 1$. Внимание количество ограничено!!!

iTunes

1+1

iTunes

мы

WEB-DL

1

iTunes

Чернобыль

iTunes

Ральф против интернета

Лицензия

ПШазам

Лицензия

Оно 2

Лицензия

30
pack

Вам бонус

ВАЖНО

!!Акция!!

Alien_RageХит недели

RePack

Resident Evil 21

ИГРА 18+

pack

RePack

jed

!!Акция!!

Alien_Rage

RePack

fifa19

RePack

Assassins Creed: Odyssey

RePack

NEED FOR SPEED™ PAYBACK

3 сезон

9 сезон

Бесстыжие 9 сезон

Все сериалы

все сериалы на PB.wtf

RePack

FAR CRY 5
Ребята, катастрофически не хватает 1900р. для оплаты серверов за Октябрь (всвязи с блокировками трафик упал в 3 раза), 1-2р., выручайте.
  

Бэк Форк / Back Fork (Джош Стюарт) [2019, драма, WEB-DLRip-AVC] MVO [HDRezka Studio] pb.wtf

Бэк Форк через торрент pb.wtf

Размер: 1.46 GB | Добавлен: 6 мес. назад | Торрент скачан:65 раз
Скачать  

25-05-2019 11:51 Бэк Форк Скачать торрент  

Бэк Форк / Back Fork Год выпуска: 2019
Страна: США
Жанр: драма
Продолжительность: 01:38:05
Перевод: Профессиональный (многоголосый) | HDRezka Studio
Субтитры: английские

Режиссер: Джош Стюарт

rating

В ролях:

А.Дж. Кук, Джош Стюарт, Агнес Брукнер, Уэйд Уильямс, Дороти Лиман, Дэвид Селби, Даг Брэдли, Иден Бролин, Ронни Джин Блевинс

Описание:

Вэйлон — лесоруб из маленького городка, который пытается наладить жизнь вместе со своей супругой Надей, после трагической смерти любимой дочери. Желая сбежать от мучительных воспоминаний, он начинает употреблять наркотики, чтобы хоть как-то скрыться от жестокой реальности. Каждый уголок его дома напоминает о пережитом горе, поэтому Вэйлон пытается с головой погрузиться в работу, однако наркотический дурман постепенно разрушает его жизнь, нанося его психике непоправимый урон и отдаляя главного героя от близких людей...

Качество: WEB-DLRip-AVC
Формат: MKV

Видео: 1024x530 (1.93:1), 23,976 fps, x264 ~1 681 kbps avg, 0.129 bit/pixel
Аудио#1: 48 kHz, AC3 Dolby Digital, 2 (L,R) ch, ~192.00 kbps avg | RUS (HDRezka Studio)
Аудио#2: 48 kHz, AC3 Dolby Digital, 3/2 (L,C,R,l,r) + LFE ch, ~256.00 kbps avg | ENG
скриншот  скриншот  скриншот  скриншот  

Общее
Уникальный идентификатор : 248124287367335858059769812648171938885 (0xBAAAFFDF09E457732EF05D561D302445)
Полное имя : F:OlLanDGroupBack.Fork.2019.WEB-DLRip(AVC).OlLanDGroup.mkv
Формат : Matroska
Версия формата : Version 4 / Version 2
Размер файла : 1,46 Гбайт
Продолжительность : 1 ч. 38 м.
Общий поток : 2130 Кбит/сек
Название фильма : Back.Fork.2019 #TorpedoUK#
Дата кодирования : UTC 2019-05-21 14:49:15
Программа кодирования : mkvmerge v29.0.0 ('Like It Or Not') 64-bit
Библиотека кодирования : libebml v1.3.6 + libmatroska v1.4.9

Видео
Идентификатор : 1
Формат : AVC
Формат/Информация : Advanced Video Codec
Профиль формата : High@L4.1
Параметр CABAC формата : Да
Параметр ReFrames формата : 10 кадров
Идентификатор кодека : V_MPEG4/ISO/AVC
Продолжительность : 1 ч. 38 м.
Битрейт : 1681 Кбит/сек
Ширина : 1024 пикселя
Высота : 530 пикселей
Соотношение сторон : 1,932
Режим частоты кадров : Постоянный
Частота кадров : 23,976 (24000/1001) кадра/сек
Цветовое пространство : YUV
Субдискретизация насыщенности : 4:2:0
Битовая глубина : 8 бит
Тип развёртки : Прогрессивная
Бит/(Пиксели*Кадры) : 0.129
Размер потока : 1,15 Гбайт (79%)
Библиотека кодирования : x264 core 146 r2538 121396c
Настройки программы : cabac=1 / ref=10 / deblock=1:-2:-3 / analyse=0x3:0x113 / me=umh / subme=10 / psy=1 / psy_rd=0.97:0.05 / mixed_ref=1 / me_range=48 / chroma_me=1 / trellis=2 / 8x8dct=1 / cqm=0 / deadzone=21,11 / fast_pskip=1 / chroma_qp_offset=-3 / threads=6 / lookahead_threads=1 / sliced_threads=0 / nr=0 / decimate=1 / interlaced=0 / bluray_compat=0 / constrained_intra=0 / bframes=11 / b_pyramid=2 / b_adapt=2 / b_bias=0 / direct=3 / weightb=1 / open_gop=0 / weightp=2 / keyint=240 / keyint_min=23 / scenecut=40 / intra_refresh=0 / rc_lookahead=40 / rc=2pass / mbtree=0 / bitrate=1681 / ratetol=1.0 / qcomp=0.60 / qpmin=0 / qpmax=69 / qpstep=4 / cplxblur=20.0 / qblur=0.5 / vbv_maxrate=50000 / vbv_bufsize=62500 / nal_hrd=none / filler=0 / ip_ratio=1.40 / pb_ratio=1.30 / aq=1:1.00
Default : Да
Forced : Нет

Аудио #1
Идентификатор : 2
Формат : AC-3
Формат/Информация : Audio Coding 3
Расширение режима : CM (complete main)
Параметр Endianness формата : Big
Идентификатор кодека : A_AC3
Продолжительность : 1 ч. 38 м.
Вид битрейта : Постоянный
Битрейт : 192 Кбит/сек
Каналы : 2 канала
Расположение каналов : Front: L R
Частота : 48,0 КГц
Частота кадров : 31,250 кадров/сек (1536 spf)
Битовая глубина : 16 бит
Метод сжатия : С потерями
Размер потока : 135 Мбайт (9%)
Заголовок : MVO [HDRezka Studio]
Язык : Russian
Default : Да
Forced : Нет

Аудио #2
Идентификатор : 3
Формат : AC-3
Формат/Информация : Audio Coding 3
Расширение режима : CM (complete main)
Параметр Endianness формата : Big
Идентификатор кодека : A_AC3
Продолжительность : 1 ч. 38 м.
Вид битрейта : Постоянный
Битрейт : 256 Кбит/сек
Каналы : 6 каналов
Расположение каналов : Front: L C R, Side: L R, LFE
Частота : 48,0 КГц
Частота кадров : 31,250 кадров/сек (1536 spf)
Битовая глубина : 16 бит
Метод сжатия : С потерями
Размер потока : 180 Мбайт (12%)
Заголовок : [Original]
Язык : English
Default : Нет
Forced : Нет

Текст
Идентификатор : 4
Формат : UTF-8
Идентификатор кодека : S_TEXT/UTF8
Идентификатор кодека/Информация : UTF-8 Plain Text
Продолжительность : 1 ч. 33 м.
Битрейт : 59 бит/сек
Count of elements : 1262
Размер потока : 41,0 Кбайт (0%)
Заголовок : Full
Язык : English
Default : Нет
Forced : Нет

Меню
00:00:00.000 : en:1
00:12:56.818 : en:2
00:22:57.585 : en:3
00:32:46.465 : en:4
00:42:38.222 : en:5
00:50:33.655 : en:6
00:59:30.191 : en:7
01:10:14.417 : en:8
01:22:15.804 : en:9
01:33:20.592 : en:10

pb.wtf



Скачать Бэк Форк через торрент http://a.radikal.ru/a43/1905/e1/a6b023a13482.jpg Скачать фильм Бэк Форк через торрент бесплантно в хорошем качестве Описание: Вэйлон — лесоруб из маленького городка, который пытается наладить жизнь вместе со своей супругой Надей, после трагической смерти ... 9.8 10 4
Торрент: Зарегистрирован [2019-05-25 11:51] · скачан: 65 раз
Статус: T временная
Размер: 1.46 GB
Как cкачать? Как скачать Бэк Форк через торрент | qTorrent

% Раздел Тема Автор DL S | L
T Фильмы (WEB-DL 720p, 1080p) [ 3.82 GB ] Бэк Форк / Back Fork [2019 WEB-DL 1080p] MVO [HDRezka Studio] bober100 Скачать
2 | 0
T Фильмы 2019 [DVDrip, WEB-DLRip, HDrip] (DUB, MVO) [ 1.46 GB ] Бэк Форк / Back Fork [2019 WEB-DLRip] MVO [HDRezka Studio] bober100 Скачать
1 | 0

28-11-2019 20:33  

Отключить всю рекламу на сайте

    Дорогой пользователь! Огромная просьба, поблагодарите релизера, оцените раздачу и оставьте свои комментарий, если Вы скачали Бэк Форк через торрент бесплатно! Внесите свою лепту в развитие PiratBit!
    Комментировать посты могут только пользователи прошедшие не сложную регистрацию
    Показать сообщения:    

    Бэк Форк через торрент
    Скачать бесплатно Бэк Форк
    Бэк Форк скачать торрент
    Бэк Форк смотреть онлайн
    Cкачать фильм Бэк Форк бесплатно
    Бэк Форк скачать торрент в хорошем качестве
    Бэк Форк смотреть онлайн бесплатно в хорошем качестве


    Вы не можете начинать темы
    Вы не можете отвечать на сообщения
    Вы не можете редактировать свои сообщения
    Вы не можете удалять свои сообщения
    Вы не можете голосовать в опросах
    Вы не можете прикреплять файлы к сообщениям
    Вы можете скачивать файлы