Ссылка на приватное зеркало нашего сайта всего за 1$. Внимание количество ограничено!!!

2 сезон

iTunes

1 сезон

1

2 сезон

2 сезон

iTunes

1 сезон

RePack

30

Ultimate

ВАЖНО

ИГРА 18+

pack

RePack

MK11
pack

Забери бонус

RePack

jed

!!Акция!!

Alien_Rage

RePack

fifa19

RePack

Assassins Creed: Odyssey

RePack

NEED FOR SPEED™ PAYBACK

4 сезон

9 сезон

Бесстыжие 9 сезон

Все сериалы

все сериалы на PB.wtf

RePack

FAR CRY 5
  

Бэк Форк / Back Fork (Джош Стюарт) [2019, драма, WEB-DL 1080p] MVO [HDRezka Studio] pb.wtf

Бэк Форк через торрент pb.wtf

Размер: 3.82 GB | Добавлен: 1 год 5 мес. назад | Торрент скачан:36 раз
Скачать  

25-05-2019 11:51 Бэк Форк Скачать торрент  

Бэк Форк / Back Fork Год выпуска: 2019
Страна: США
Жанр: драма
Продолжительность: 01:38:05
Перевод: Профессиональный (многоголосый) | HDRezka Studio
Субтитры: английские

Режиссер: Джош Стюарт

rating

В ролях:

А.Дж. Кук, Джош Стюарт, Агнес Брукнер, Уэйд Уильямс, Дороти Лиман, Дэвид Селби, Даг Брэдли, Иден Бролин, Ронни Джин Блевинс

Описание:

Вэйлон — лесоруб из маленького городка, который пытается наладить жизнь вместе со своей супругой Надей, после трагической смерти любимой дочери. Желая сбежать от мучительных воспоминаний, он начинает употреблять наркотики, чтобы хоть как-то скрыться от жестокой реальности. Каждый уголок его дома напоминает о пережитом горе, поэтому Вэйлон пытается с головой погрузиться в работу, однако наркотический дурман постепенно разрушает его жизнь, нанося его психике непоправимый урон и отдаляя главного героя от близких людей...

Качество: WEB-DL 1080p
Формат: MKV

Видео: 1920x992 (1.935), 23.976 fps, MPEG-4 AVC ~4 996 kbps avg
Аудио#1: 48.0 kHz, AC3 Dolby Digital, 2/0 (L,R) ch, ~192 kbps | RUS / MVO
Аудио#2: 48.0 kHz, AC3 Dolby Digital, 3/2 (L,C,R,l,r) + LFE ch, ~384 kbps | ENG
скриншот  скриншот  скриншот  

General
Unique ID : 241179769406638703375333709572638953996 (0xB57188B3711D5DDAEE5192269226D20C)
Complete name : Back.Fork.2019.WEB-DL.1080p.mkv
Format : Matroska
Format version : Version 4 / Version 2
File size : 3.82 GiB
Duration : 1 h 38 min
Overall bit rate : 5 574 kb/s
Encoded date : UTC 2019-05-20 15:25:58
Writing application : mkvmerge v20.0.0 ('I Am The Sun') 64-bit
Writing library : libebml v1.3.5 + libmatroska v1.4.8

Video
ID : 1
Format : AVC
Format/Info : Advanced Video Codec
Format profile : High@L4
Format settings : CABAC / 4 Ref Frames
Format settings, CABAC : Yes
Format settings, RefFrames : 4 frames
Codec ID : V_MPEG4/ISO/AVC
Duration : 1 h 38 min
Bit rate : 4 996 kb/s
Width : 1 920 pixels
Height : 992 pixels
Display aspect ratio : 1.935
Frame rate mode : Constant
Frame rate : 23.976 (24000/1001) FPS
Color space : YUV
Chroma subsampling : 4:2:0
Bit depth : 8 bits
Scan type : Progressive
Bits/(Pixel*Frame) : 0.109
Stream size : 3.42 GiB (90%)
Language : English
Default : Yes
Forced : No
Color range : Limited
Color primaries : BT.709
Transfer characteristics : BT.709
Matrix coefficients : BT.709

Audio #1
ID : 2
Format : AC-3
Format/Info : Audio Coding 3
Codec ID : A_AC3
Duration : 1 h 38 min
Bit rate mode : Constant
Bit rate : 192 kb/s
Channel(s) : 2 channels
Channel positions : Front: L R
Sampling rate : 48.0 kHz
Frame rate : 31.250 FPS (1536 SPF)
Bit depth : 16 bits
Compression mode : Lossy
Stream size : 135 MiB (3%)
Title : MVO HDRezka Studio
Language : Russian
Service kind : Complete Main
Default : Yes
Forced : No

Audio #2
ID : 3
Format : AC-3
Format/Info : Audio Coding 3
Codec ID : A_AC3
Duration : 1 h 38 min
Bit rate mode : Constant
Bit rate : 384 kb/s
Channel(s) : 6 channels
Channel positions : Front: L C R, Side: L R, LFE
Sampling rate : 48.0 kHz
Frame rate : 31.250 FPS (1536 SPF)
Bit depth : 16 bits
Compression mode : Lossy
Stream size : 269 MiB (7%)
Language : English
Service kind : Complete Main
Default : No
Forced : No

Text
ID : 4
Format : UTF-8
Codec ID : S_TEXT/UTF8
Codec ID/Info : UTF-8 Plain Text
Duration : 1 h 33 min
Bit rate : 59 b/s
Count of elements : 1262
Stream size : 41.0 KiB (0%)
Language : English
Default : No
Forced : No

Menu
00:00:00.000 : en:1
00:12:56.818 : en:2
00:22:57.585 : en:3
00:32:46.465 : en:4
00:42:38.222 : en:5
00:50:33.655 : en:6
00:59:30.191 : en:7
01:10:14.417 : en:8
01:22:15.804 : en:9
01:33:20.592 : en:10

pb.wtf



Скачать Бэк Форк через торрент http://a.radikal.ru/a43/1905/e1/a6b023a13482.jpg Скачать фильм Бэк Форк через торрент бесплантно в хорошем качестве Описание: Вэйлон — лесоруб из маленького городка, который пытается наладить жизнь вместе со своей супругой Надей, после трагической смерти ... 10 10 2
Торрент: Зарегистрирован [2019-05-25 11:51] · скачан: 36 раз
Статус: T временная
Размер: 3.82 GB
Как cкачать? Как скачать Бэк Форк через торрент | qTorrent

% Раздел Тема Автор DL S | L
T Фильмы 2019-2020 [DVDrip, WEB-DLRip, HDrip] (DUB, MVO) [ 1.46 GB ] Бэк Форк / Back Fork [2019 WEB-DLRip-AVC] MVO [HDRezka Studio] bober100 Скачать
1 | 0
T Фильмы 2019-2020 [DVDrip, WEB-DLRip, HDrip] (DUB, MVO) [ 1.46 GB ] Бэк Форк / Back Fork [2019 WEB-DLRip] MVO [HDRezka Studio] bober100 Скачать
1 | 0

28-11-2019 20:33  

Отключить всю рекламу на сайте

    Дорогой пользователь! Огромная просьба, поблагодарите релизера, оцените раздачу и оставьте свои комментарий, если Вы скачали Бэк Форк через торрент бесплатно! Внесите свою лепту в развитие PiratBit!
    Комментировать посты могут только пользователи прошедшие не сложную регистрацию
    Показать сообщения:    

    Бэк Форк через торрент
    Скачать бесплатно Бэк Форк
    Бэк Форк скачать торрент
    Бэк Форк смотреть онлайн
    Cкачать фильм Бэк Форк бесплатно
    Бэк Форк скачать торрент в хорошем качестве
    Бэк Форк смотреть онлайн бесплатно в хорошем качестве


    Вы не можете начинать темы
    Вы не можете отвечать на сообщения
    Вы не можете редактировать свои сообщения
    Вы не можете удалять свои сообщения
    Вы не можете голосовать в опросах
    Вы не можете прикреплять файлы к сообщениям
    Вы можете скачивать файлы