Мега распродажа FORZA HORIZON 4 ULTIMATE+ВСЕ DLC+ОНЛАЙН всего за 499р. 349 руб. (супер цена). Внимание количество ограничено!!!

iTunes

1+1

iTunes

мы

iTunes

1

1 сезон

Чернобыль

1 сезон

Ральф против интернета

Лицензия

ПШазам

8 сезон

Игра престолов

Лицензия

30
pack

ВАЖНО

!!Акция!!

Alien_RageХит недели

RePack

Resident Evil 21

ИГРА 18+

pack

RePack

Metro:Exodus

!!Акция!!

Alien_Rage

RePack

fifa19

RePack

Assassins Creed: Odyssey

RePack

NEED FOR SPEED™ PAYBACK

3 сезон

9 сезон

Бесстыжие 9 сезон

Все сериалы

все сериалы на PB.wtf

RePack

FAR CRY 5
Ребята, катастрофически не хватает 2730р. для оплаты серверов за ИЮНЬ (всвязи с блокировками трафик упал в 3 раза), 1-2р., выручайте.
  

Человек, место, время и снова человек / Ingan, gonggan, sigan geurigo ingan (Ким Ки Дук) [2018 г., триллер, WEB-DL 1080p] [MVO] [Line] pb.wtf

Человек, место, время и снова человек через торрент pb.wtf

Раздают: 1 [ 0 KB/s ]
Размер: 4.31 GB | Добавлен: 1 мес. 24 д. назад | Торрент скачан:13 раз
Скачать  

25-05-2019 12:05 Человек, место, время и снова человек Скачать торрент  

Человек место время и снова человек / Ingan gonggan sigan geurigo ingan


Год выпуска: 2018
Страна: Южная Корея
Жанр: триллер
Продолжительность: 2:01:57
Перевод: Профессиональный (многоголосый) [Чистый звук]
Субтитры: отсутствуют

Режиссер: Ким Ки Дук

В ролях: Ан Джи-хе, Чан Гын-сок, Дзё Одагири, Рю Сын-бом, Хван Гон, Ли Сон-джэ, Тхэ Хан-хо, Мина Фудзи, Ли Ю-джун, Ан Сон-ги

Описание: Разношёрстная группа туристов отправилась в путешествие на старом военном корабле. Среди пассажиров: сенатор с сыном, супружеская пара, таинственный старик, секс-работники и банда преступников. Поначалу агрессивное поведение головорезов направлено на пассажиров первого класса, но затем им под руку попадаются и остальные на борту.

rating
скриншот  

Качество: WEB-DL 1080p
Формат: MKV
Видео кодек: AVC
Аудио кодек: AC3
Видео: MPEG-4 AVC, 5120 Кбит/с, 1920x1040
Аудио: AC3, 2 ch, 192 Кбит/с
General
Unique ID : 176508892637337829882385818988211049898 (0x84CA604D3509B3E1ABCDC079379395AA)
Complete name : Chelovek.mesto.vremya.i.snova.chelovek.2018.WEB-DL.1080p.mkv
Format : Matroska
Format version : Version 4 / Version 2
File size : 4.31 GiB
Duration : 1h 56mn
Overall bit rate : 5 305 Kbps
Encoded date : UTC 2019-05-24 00:07:26
Writing application : mkvmerge v8.3.0 ('Over the Horizon') 64bit
Writing library : libebml v1.3.1 + libmatroska v1.4.2
DURATION : 01:56:25.792000000
NUMBER_OF_FRAMES : 218306
NUMBER_OF_BYTES : 167659008
_STATISTICS_WRITING_APP : mkvmerge v8.3.0 ('Over the Horizon') 64bit
_STATISTICS_WRITING_DATE_UTC : 2019-05-24 00:07:26
_STATISTICS_TAGS : BPS DURATION NUMBER_OF_FRAMES NUMBER_OF_BYTES

Video
ID : 1
Format : AVC
Format/Info : Advanced Video Codec
Format profile : High@L4
Format settings, CABAC : Yes
Format settings, ReFrames : 4 frames
Codec ID : V_MPEG4/ISO/AVC
Duration : 1h 56mn
Bit rate : 5 120 Kbps
Width : 1 920 pixels
Height : 1 040 pixels
Display aspect ratio : 1.85:1
Frame rate mode : Constant
Frame rate : 25.000 fps
Color space : YUV
Chroma subsampling : 4:2:0
Bit depth : 8 bits
Scan type : Progressive
Bits/(Pixel*Frame) : 0.103
Stream size : 4.07 GiB (94%)
Writing library : x264 core 142
Encoding settings : cabac=1 / ref=3 / deblock=1:0:0 / analyse=0x3:0x113 / me=hex / subme=7 / psy=1 / psy_rd=1.00:0.00 / mixed_ref=1 / me_range=16 / chroma_me=1 / trellis=1 / 8x8dct=1 / cqm=0 / deadzone=21,11 / fast_pskip=1 / chroma_qp_offset=-2 / threads=36 / lookahead_threads=6 / sliced_threads=0 / nr=0 / decimate=1 / interlaced=0 / bluray_compat=0 / constrained_intra=0 / bframes=6 / b_pyramid=2 / b_adapt=1 / b_bias=0 / direct=1 / weightb=1 / open_gop=0 / weightp=2 / keyint=50 / keyint_min=26 / scenecut=0 / intra_refresh=0 / rc_lookahead=40 / rc=2pass / mbtree=1 / bitrate=5120 / ratetol=1.0 / qcomp=0.60 / qpmin=0 / qpmax=69 / qpstep=4 / cplxblur=20.0 / qblur=0.5 / vbv_maxrate=7680 / vbv_bufsize=20480 / nal_hrd=none / filler=0 / ip_ratio=1.40 / aq=1:1.00
Language : English
Default : Yes
Forced : No

Audio
ID : 2
Format : AC-3
Format/Info : Audio Coding 3
Mode extension : CM (complete main)
Format settings, Endianness : Big
Codec ID : A_AC3
Duration : 1h 56mn
Bit rate mode : Constant
Bit rate : 192 Kbps
Channel(s) : 2 channels
Channel positions : Front: L R
Sampling rate : 48.0 KHz
Compression mode : Lossy
Stream size : 160 MiB (4%)
Language : Russian
Default : Yes
Forced : No
скриншот  скриншот  скриншот  
pb.wtf



Скачать Человек, место, время и снова человек через торрент https://i109.fastpic.ru/big/2019/0525/50/bb5b554fa81116f59e0407d734058550.jpg Скачать фильм Человек, место, время и снова человек через торрент бесплантно в хорошем качестве Описание: Разношёрстная группа туристов отправилась в путешествие на старом военном корабле. Среди пассажиров: сенатор с сыном, супружеская ... 5 10 1
Торрент: Зарегистрирован [2019-05-25 12:05] · скачан: 13 раз
Статус: T временная
Размер: 4.31 GB
Как cкачать? Как скачать Человек, место, время и снова человек через торрент | qTorrent


>> Регистрируемся здесь <<






Отзывы и комментарии о схеме читаем и пишем здесь: ---> Отзывы и комментарии о схеме

Новые благодарочки в телеграм довольных пользователей:
скриншот   скриншот   скриншот   скриншот   скриншот
    Дорогой пользователь! Огромная просьба, поблагодарите релизера, оцените раздачу и оставьте свои комментарий, если Вы скачали Человек, место, время и снова человек через торрент бесплатно! Внесите свою лепту в развитие PiratBit!
    Комментировать посты могут только пользователи прошедшие не сложную регистрацию
    Показать сообщения:    

    Человек, место, время и снова человек через торрент
    Скачать бесплатно Человек, место, время и снова человек
    Человек, место, время и снова человек скачать торрент
    Человек, место, время и снова человек смотреть онлайн
    Cкачать фильм Человек, место, время и снова человек бесплатно
    Человек, место, время и снова человек скачать торрент в хорошем качестве
    Человек, место, время и снова человек смотреть онлайн бесплатно в хорошем качестве


    Вы не можете начинать темы
    Вы не можете отвечать на сообщения
    Вы не можете редактировать свои сообщения
    Вы не можете удалять свои сообщения
    Вы не можете голосовать в опросах
    Вы не можете прикреплять файлы к сообщениям
    Вы можете скачивать файлы