Ссылка на приватное зеркало нашего сайта всего за 1$. Внимание количество ограничено!!!

2 сезон

iTunes

1 сезон

1

2 сезон

2 сезон

iTunes

1 сезон

RePack

30

Ultimate

ВАЖНО

ИГРА 18+

pack

RePack

MK11
pack

Забери бонус

RePack

jed

!!Акция!!

Alien_Rage

RePack

fifa19

RePack

Assassins Creed: Odyssey

RePack

NEED FOR SPEED™ PAYBACK

4 сезон

9 сезон

Бесстыжие 9 сезон

Все сериалы

все сериалы на PB.wtf

RePack

FAR CRY 5
  

Что/если / What/If / Сезон: 1 / Серии: 1-10 из 10 (Филлип Нойс, Джессика Борсицки, Мэгги Кили) [2019, триллер, драма, WEB-DLRip] DUB [SDI Media] pb.wtf

Что через торрент pb.wtf

Размер: 6.73 GB | Добавлен: 1 год 6 мес. назад | Торрент скачан:78 раз
Скачать  

25-05-2019 13:07 Что Скачать торрент  

Что/если / What/If Страна: США
Год выпуска: 2019
Производство: Netflix, Warner Bros. Television и др.
Жанр: триллер, драма
Продолжительность: ~00:55:00 серия
Перевод: Дублированный | SDI Media
Субтитры: Russian (Forced, Full), English (SDH) (отдельно, .srt)

Режиссёр: Филлип Нойс, Джессика Борсицки, Мэгги Кили

rating


В ролях:

Рене Зеллвегер, Дэйв Эннэйбл, Хуан Кастано, Блейк Дженнер, Джейн Леви, Даниэлла Пинеда, Кит Пауэрс, Луис Хертэм, Саамер Усмани

Описание:

Состоятельная немолодая женщина Анна делает паре молодоженов из Сан-Франциско, отчаянно нуждающихся в деньгах, крайне рискованное предложение. За их согласием следует целая вереница событий, которая приводит к самым неожиданным результатам. В центре событий оказываются не только главные герои, но и их близкие люди, друзья и коллеги.
Анна мастерски манипулирует людьми, и в итоге изначально положительные герои совершают некрасивые, а порой и подлые поступки.

Качество: WEB-DLRip
Формат: AVI

Видео: 720x400 at 23.976 fps, XviD, ~1500 kbps avg
Аудио#1: Russian: 48 kHz, AC3, 2/0 (L,R) ch, ~192 kbps avg |Дубляж, SDI Media по заказу Netflix|
Аудио#2: English: 48 kHz, AC3, 2/0 (L,R) ch, ~192 kbps avg
скриншот  скриншот  скриншот  скриншот  

General
Complete name : H:\What.If.S01.WEB-DLRip\What.If.s01e01.WEB-DLRip.avi
Format : AVI
Format/Info : Audio Video Interleave
File size : 797 MiB
Duration : 56 min 59 s
Overall bit rate : 1 954 kb/s
Writing application : VirtualDubMod 1.5.10.3 | www.virtualdub-fr.org || (build 2550/release)
Writing library : VirtualDubMod build 2550/release

Video
ID : 0
Format : MPEG-4 Visual
Format profile : Advanced Simple@L5
Format settings : BVOP1
Format settings, BVOP : 1
Format settings, QPel : No
Format settings, GMC : No warppoints
Format settings, Matrix : Default (MPEG)
Codec ID : XVID
Codec ID/Hint : XviD
Duration : 56 min 59 s
Bit rate : 1 555 kb/s
Width : 720 pixels
Height : 400 pixels
Display aspect ratio : 16:9
Frame rate : 23.976 (24000/1001) FPS
Color space : YUV
Chroma subsampling : 4:2:0
Bit depth : 8 bits
Scan type : Progressive
Compression mode : Lossy
Bits/(Pixel*Frame) : 0.225
Stream size : 634 MiB (80%)
Writing library : XviD 73

Audio #1
ID : 1
Format : AC-3
Format/Info : Audio Coding 3
Codec ID : 2000
Duration : 56 min 59 s
Bit rate mode : Constant
Bit rate : 192 kb/s
Channel(s) : 2 channels
Channel positions : Front: L R
Sampling rate : 48.0 kHz
Frame rate : 31.250 FPS (1536 SPF)
Bit depth : 16 bits
Compression mode : Lossy
Stream size : 78.3 MiB (10%)
Alignment : Split accross interleaves
Interleave, duration : 42 ms (1.00 video frame)
Interleave, preload duratio : 500 ms
Service kind : Complete Main

Audio #2
ID : 2
Format : AC-3
Format/Info : Audio Coding 3
Codec ID : 2000
Duration : 56 min 59 s
Bit rate mode : Constant
Bit rate : 192 kb/s
Channel(s) : 2 channels
Channel positions : Front: L R
Sampling rate : 48.0 kHz
Frame rate : 31.250 FPS (1536 SPF)
Bit depth : 16 bits
Compression mode : Lossy
Stream size : 78.3 MiB (10%)
Alignment : Split accross interleaves
Interleave, duration : 42 ms (1.00 video frame)
Interleave, preload duratio : 500 ms
Service kind : Complete Main

pb.wtf



Скачать Что через торрент https://i5.imageban.ru/out/2019/05/25/9bdd5c76784587617c1095bb53bb8bb4.jpg Скачать фильм Чточерез торрент бесплантно в хорошем качестве Описание: Состоятельная немолодая женщина Анна делает паре молодоженов из Сан-Франциско, отчаянно нуждающихся в деньгах, крайне рискованное ... 10 10 5
Торрент: Зарегистрирован [2019-05-25 13:07] · скачан: 78 раз
Статус: √ проверено
Размер: 6.73 GB
Как cкачать? Как скачать Что через торрент | qTorrent

% Раздел Тема Автор DL S | L
Зарубежные сериалы [ 57.37 GB ] Что/если / What/If / Сезон: 1 / Серии: 1-10 из 10 [2019 UHD WEB-DL 2160p] DUB [SDI Media] bober100 Скачать
1 | 0
Зарубежные сериалы [ 3.42 GB ] Что/если / What/If / Сезон: 1 / Серии: 1-2 из 10 [2019 WEB-DL 1080p] MVO [TVShows] bober100 Скачать
1 | 0
Зарубежные сериалы [ 8.21 GB ] Что если / What If / Сезон: 1 / Серии: 1-10 из 10 [2019 WEB-DLRip] [MVO] killermax2013 Скачать
1 | 0
Зарубежные сериалы [ 10.03 GB ] Что если / What If / Сезон: 1 / Серии: 1-10 из 10 [2019 WEB-DL 720p] DUB [SDI Media] bober100 Скачать
1 | 0
Зарубежные сериалы [ 15.13 GB ] Что/если / What/If / Сезон: 1 / Серии: 1-10 из 10 [2019 WEB-DL 1080p] DUB [SDI Media] bober100 Скачать
1 | 0

28-11-2019 20:33  

Отключить всю рекламу на сайте

28-05-2019 18:00 Что Скачать торрент  

Отличный сериал, посмотрел три серии на одном дыхании, рекомендую...pb.wtf



    Дорогой пользователь! Огромная просьба, поблагодарите релизера, оцените раздачу и оставьте свои комментарий, если Вы скачали Что через торрент бесплатно! Внесите свою лепту в развитие PiratBit!
    Комментировать посты могут только пользователи прошедшие не сложную регистрацию
    Показать сообщения:    

    Что через торрент
    Скачать бесплатно Что
    Что скачать торрент
    Что смотреть онлайн
    Cкачать фильм Что бесплатно
    Что скачать торрент в хорошем качестве
    Что смотреть онлайн бесплатно в хорошем качестве


    Вы не можете начинать темы
    Вы не можете отвечать на сообщения
    Вы не можете редактировать свои сообщения
    Вы не можете удалять свои сообщения
    Вы не можете голосовать в опросах
    Вы не можете прикреплять файлы к сообщениям
    Вы можете скачивать файлы