Ссылка на приватное зеркало нашего сайта всего за 1$. Внимание количество ограничено!!!

2 сезон

iTunes

1 сезон

1

2 сезон

2 сезон

iTunes

1 сезон

RePack

30

Новинка

ВАЖНО

ИГРА 18+

pack

RePack

MK11
pack

Забери бонус

RePack

jed

!!Акция!!

Alien_Rage

RePack

fifa19

RePack

Assassins Creed: Odyssey

RePack

NEED FOR SPEED™ PAYBACK

4 сезон

9 сезон

Бесстыжие 9 сезон

Все сериалы

все сериалы на PB.wtf

RePack

FAR CRY 5
  

Смертельная битва: Наследие / Mortal Kombat: Legacy / Сезон: 1-2 / Серии: 1-19 из 19 (Кевин Танчароэн) [2011-2013, Боевик, криминал, триллер, фэнтези, WEB-DL 720p] MVO [LostFilm] pb.wtf

Смертельная битва: Наследие через торрент pb.wtf

Раздают: 1 [ 0 KB/s ]
Размер: 5.68 GB | Добавлен: 1 год 6 мес. назад | Торрент скачан:124 раза
Скачать  

25-05-2019 17:06 Смертельная битва: Наследие Скачать торрент  

Смертельная битва: Наследие / Mortal Kombat: Legacy Год выпуска: 2011-2013
Страна: США
Жанр: Боевик, криминал, триллер, фэнтези
Продолжительность: ~ 00:10:00
Перевод: Профессиональный многоголосый | LostFilm
Субтитры: отсутствуют

Режиссер: Кевин Танчароэн

rating

В ролях:

Майкл Джей Уайт, Даррен Шалави, Иэн Энтони Дэйл, Серж Уд, Беатрис Айлдж, Шэйн Уоррен Джонс, Мэтт Маллинз, Кеван Охтци, Райан Роббинс, Джери Райан

Описание:

Сериал представляет собой цепь историй, связанных между собой лишь участием персонажей в турнире «Смертельная битва». Каждая из историй посвящена событиям, ранее лишь упоминавшимся в мифологии игр серии. Первая серия посвящена противостоянию Кано с одной стороны и Джаксона Бриггса и Сони Блейд с другой. Далее продемонстрирована предыстория конфликта Скорпиона и Саб-Зиро, Китаны и Милены, а также Сайрекса и Сектора.

Качество: WEB-DL 720p
Формат: MP4 (1- сезон), MKV (2- сезон)

Видео: 3500 Кбит/с, 1280x720, 25 fps
Аудио: AAC, 2 ch, 117 Кбит/c
скриншот  скриншот  скриншот  

скриншот  скриншот  скриншот  

Общее
Полное имя : D:\Mortal Kombat - Legacy\1\Mortal.Kombat.Legacy.S01E01.720p.WEB.rus.LostFilm.TV.mp4
Формат : MPEG-4
Профиль формата : Base Media
Идентификатор кодека : isom (isom)
Размер файла : 328 Мбайт
Продолжительность : 12 м. 33 с.
Режим общего битрейта : Переменный
Общий поток : 3657 Кбит/сек
Коллекция : Смертельная битва: Наследие
Сезон : 1
Альбом : Смертельная битва: Наследие, Сезон 1
Альбом/Исполнитель : Смертельная битва: Наследие
Часть : 1
Часть/Положение : 1
Трек : Джакс, Соня и Кано. Часть 1
Трек/Положение : 1
Исполнитель : Смертельная битва: Наследие
Жанр : Sci-Fi & Fantasy
Тип содержимого : TV Show
Дата записи : 2013
Дата кодирования : UTC 2013-12-17 08:41:53
Дата пометки : UTC 2013-12-18 08:43:19
Программа кодирования : LostCoder
Авторское право : LostFilm.TV (c)
Обложка : Yes
Примечание : 19 увлекательных историй о том, откуда появились персонажи вселенной Mortal Kombat, что они собой представляют, что их связывает друг с другом и каковы причины их конфликтов.
Part_ID : 101

Видео
Идентификатор : 1
Формат : AVC
Формат/Информация : Advanced Video Codec
Профиль формата : Main@L3.1
Параметр CABAC формата : Нет
Параметр RefFrames формата : 4 кадра
Идентификатор кодека : avc1
Идентификатор кодека/Информация : Advanced Video Coding
Продолжительность : 12 м. 33 с.
Битрейт : 3530 Кбит/сек
Номинальный битрейт : 4000 Кбит/сек
Максимальный битрейт : 6150 Кбит/сек
Ширина : 1280 пикселей
Высота : 720 пикселей
Соотношение сторон : 16:9
Режим частоты кадров : Переменный
Частота кадров : 30,000 кадров/сек
Минимальная частота кадров : 30,000 кадров/сек
Максимальная частота кадров : 30,010 кадров/сек
Цветовое пространство : YUV
Субдискретизация насыщенности : 4:2:0
Битовая глубина : 8 бит
Тип развёртки : Прогрессивная
Бит/(Пиксели*Кадры) : 0.128
Размер потока : 317 Мбайт (97%)
Библиотека кодирования : x264 core 112 r1834 a51816a
Настройки программы : cabac=0 / ref=3 / deblock=1:0:0 / analyse=0x1:0x111 / me=hex / subme=7 / psy=1 / psy_rd=1.00:0.00 / mixed_ref=1 / me_range=16 / chroma_me=1 / trellis=1 / 8x8dct=0 / cqm=0 / deadzone=21,11 / fast_pskip=1 / chroma_qp_offset=-2 / threads=6 / sliced_threads=0 / nr=0 / decimate=1 / interlaced=0 / constrained_intra=0 / bframes=3 / b_pyramid=2 / b_adapt=1 / b_bias=0 / direct=1 / weightb=1 / open_gop=0 / weightp=2 / keyint=250 / keyint_min=25 / scenecut=40 / intra_refresh=0 / rc_lookahead=40 / rc=abr / mbtree=1 / bitrate=4000 / ratetol=1.0 / qcomp=0.60 / qpmin=0 / qpmax=51 / qpstep=4 / vbv_maxrate=5000 / vbv_bufsize=2000 / ip_ratio=1.40 / aq=1:1.00 / nal_hrd=none
Язык : English
Дата пометки : UTC 2013-12-17 08:41:57

Аудио
Идентификатор : 2
Формат : AAC
Формат/Информация : Advanced Audio Codec
Профиль формата : LC
Идентификатор кодека : 40
Продолжительность : 12 м. 33 с.
Вид битрейта : Переменный
Битрейт : 117 Кбит/сек
Максимальный битрейт : 183 Кбит/сек
Каналы : 2 канала
Расположение каналов : Front: L R
Частота : 48,0 КГц
Частота кадров : 46,875 кадров/сек (1024 spf)
Метод сжатия : С потерями
Размер потока : 10,5 Мбайт (3%)
Дата кодирования : UTC 2013-12-17 08:41:57
Дата пометки : UTC 2013-12-17 08:41:57

pb.wtf



Скачать Смертельная битва: Наследие через торрент https://a.radikal.ru/a20/1905/17/6d744a0f4d40.jpg Скачать фильм Смертельная битва: Наследие через торрент бесплантно в хорошем качестве Описание: Сериал представляет собой цепь историй, связанных между собой лишь участием персонажей в турнире «Смертельная битва». Каждая из ... 10 10 5
Торрент: Зарегистрирован [2019-05-25 17:06] · скачан: 124 раз
Статус: √ проверено
Размер: 5.68 GB
Как cкачать? Как скачать Смертельная битва: Наследие через торрент | qTorrent

28-11-2019 20:33  

Отключить всю рекламу на сайте

    Дорогой пользователь! Огромная просьба, поблагодарите релизера, оцените раздачу и оставьте свои комментарий, если Вы скачали Смертельная битва: Наследие через торрент бесплатно! Внесите свою лепту в развитие PiratBit!
    Комментировать посты могут только пользователи прошедшие не сложную регистрацию
    Показать сообщения:    

    Смертельная битва: Наследие через торрент
    Скачать бесплатно Смертельная битва: Наследие
    Смертельная битва: Наследие скачать торрент
    Смертельная битва: Наследие смотреть онлайн
    Cкачать фильм Смертельная битва: Наследие бесплатно
    Смертельная битва: Наследие скачать торрент в хорошем качестве
    Смертельная битва: Наследие смотреть онлайн бесплатно в хорошем качестве


    Вы не можете начинать темы
    Вы не можете отвечать на сообщения
    Вы не можете редактировать свои сообщения
    Вы не можете удалять свои сообщения
    Вы не можете голосовать в опросах
    Вы не можете прикреплять файлы к сообщениям
    Вы можете скачивать файлы