Достать ножи: Стеклянная луковица

MVO

Добыча

Дубляж

Уэнсдэй

1 сезон

Тор

Дубляж

13 клиническая

1 сезон

Жестокая ночь

MVO

Одни из нас

1 сезон

Deluxe

pack

Рекомендуем

30

Пиратка

ВАЖНО

ВАЖНО

Ghostwire

Пиратка

jed

RePack

nioh2

RePack

RDR2

RePack

NEED FOR SPEED™ PAYBACK

RePack

скачать торрент

Кинопоиск HD

Острые козырьки 6 сезон

6 сезон

FAR CRY 6

RePack

скачать торрент

Лицензия

скачать торрент

MVO

1

1 сезон

скачать торрент

1 сезон

скачать торрент

Лицензия

  

Игра престолов / Game of Thrones / Сезон: 8 / Серии: 1-6 из 6 (Алан Тейлор, Даниэль Минахан, Дэвид Наттер) [2019, Фэнтези, Триллер, WEB-DLRip] MVO [Jaskier]

Игра престолов через торрент pb.wtf

Размер: 5.62 GB | Добавлен: 3 года 8 мес. назад | Торрент скачан:64 раза
Смотреть онлайн | Скачать | Поддержите нас   

25-05-2019 18:54 Игра престолов Скачать торрент  

═╬ Игра престолов / Game of Thrones ╬═
✦ Год выпуска: 2019
✦ Страна: США, Великобритания
✦ Жанр: фэнтези, драма, мелодрама, приключения
✦ Продолжительность: 00:55:00
✦ Перевод: Профессиональный (многоголосый закадровый) | Jaskier
✦ Субтитры: отсутствуют

✦ Режиссёр: Алан Тейлор, Даниэль Минахан, Дэвид Наттер, Брайан Кирк, Тимоти Ван Паттен, Дэвид Петрарка

В ролях:

Питер Динклэйдж, Николай Костер-Вальдау, Лена Хиди, Эмилия Кларк, Кит Харингтон, Эйдан Гиллен, Софи Тёрнер, Мэйси Уильямс, Альфи Аллен, Айзек Хэмпстед-Райт, Рори Макканн, Лиам Каннингем, Джон Брэдли, Натали Дормер, Кэрис ван Хаутен, Джером Флинн, Конлет Хилл, Кристофер Хивью, Ханна Мюррей, Гвендолин Кристи, Иван Реон, Индира Варма, Михиль Хёйсман, Натали Эммануэль, Том Влашиха, Дин-Чарльз Чэпмен, Майкл Макэлхаттон, Джонатан Прайс, Иэн Глен и др.

Описание:

«Игра престолов» новый сериал HBO, основанный на бестселлерах Джорджа Р.Р. Мартина. В мире, где лето и зимы длятся десятилетиями, на кону корона Вестероса. Предательство, похоть, интриги и сверхъестественные силы сотрясают все четыре стороны Королевства — от плетущего интриги юга, диких восточных земель, до замерзшего севера и древней Стены, что защищает королевство от тьмы за нею. Короли и королевы, рыцари и мятежники, лжецы и благородные люди борются за Влacть в кровавом сражении за Железный Трон.

rating

Качество: WEB-DLRip
Формат: AVI

Видео: ~ 1500 kbps | 720x400 (16:9) | 23.976
Аудио Rus: AC3 | 48.0 KHz | 2 ch | 192 kbps
скриншот   скриншот   скриншот   скриншот   скриншот  

Общее
Полное имя : D:\Game.of.Thrones. Season 8 (400p l Jaskier)\Game.of.Thrones.S08E01.400p.Jaskier.avi
Формат : AVI
Формат/Информация : Audio Video Interleave
Размер файла : 646 Мбайт
Продолжительность : 56 м. 22 с.
Общий поток : 1601 Кбит/сек
Программа кодирования : VirtualDubMod 1.5.10.3 | www.virtualdub-fr.org || (build 2550/release)
Библиотека кодирования : VirtualDubMod build 2550/release

Видео
Идентификатор : 0
Формат : MPEG-4 Visual
Профиль формата : Advanced [email protected]
Параметр BVOP формата : 2
Параметр QPel формата : Нет
Параметр GMC формата : Без точки перехода
Параметр матрицы формата : Выборочная
Идентификатор кодека : XVID
Идентификатор кодека/Подсказка : XviD
Продолжительность : 56 м. 22 с.
Битрейт : 1400 Кбит/сек
Ширина : 720 пикселей
Высота : 400 пикселей
Соотношение сторон : 16:9
Частота кадров : 23,976 (23976/1000) кадра/сек
Цветовое пространство : YUV
Субдискретизация насыщенности : 4:2:0
Битовая глубина : 8 бит
Тип развёртки : Прогрессивная
Метод сжатия : С потерями
Бит/(Пиксели*Кадры) : 0.203
Размер потока : 564 Мбайт (87%)
Библиотека кодирования : XviD 73

Аудио
Идентификатор : 1
Формат : AC-3
Формат/Информация : Audio Coding 3
Расширение режима : CM (complete main)
Параметр Endianness формата : Big
Идентификатор кодека : 2000
Продолжительность : 56 м. 22 с.
Вид битрейта : Постоянный
Битрейт : 192 Кбит/сек
Каналы : 2 канала
Расположение каналов : Front: L R
Частота : 48,0 КГц
Частота кадров : 31,250 кадров/сек (1536 spf)
Метод сжатия : С потерями
Размер потока : 77,4 Мбайт (12%)
Выравнивание : Разделение по промежуткам
Продолжительность промежутка : 42 мс. (1,00 видеокадр)
Время предзагрузки промежутка : 500 мс.




Скачать Игра престолов через торрент http://i74.fastpic.ru/big/2015/1220/ae/85041bac28a287354100e9dad14afdae.png Скачать, смотреть онлайн Игра престолов бесплантно в хорошем качестве Описание ═: «Игра престолов» новый сериал HBO, основанный на бестселлерах Джорджа Р.Р. Мартина. В мире, где лето и зимы длятся ... 9.8 10 4
Торрент: Зарегистрирован [2019-05-25 18:54] · скачан: 64 раз
Статус: √ проверено
Размер: 5.62 GB
Как cкачать? Как скачать Игра престолов через торрент | UTorrent

% Раздел Тема Автор DL S | L
Игра престолов [ 109.58 GB ] Игра престолов / Game of Thrones / Сезон: 1-8 из 8 / Серии: 1-73 из 73 | DUB | DLRip 1080p sheker187 Скачать
2 | 1
Игра престолов [ 322.59 GB ] Игра престолов / Game of Thrones / Сезон: 1-8 из 8 / Серии: 1-73 из 73 | LostFilm | DLRip 1080p sheker187 Скачать
2 | 1
Игра престолов [ 297.23 GB ] Игра престолов / Game of Thrones / Сезон: 1-7 из 7 / Серии: 1-67 из 67 | LostFilm | 1080p sheker187 Скачать
1 | 0
Игра престолов [ 7.26 GB ] Игра Престолов / Game of Thrones / Сезон: 8 / Серии: 1-6 из 6 | Лицензия | BDRip Twi7ter Скачать
8 | 1
Игра престолов [ 25.89 GB ] Игра престолов / Game of Thrones / Сезон: 8 / Серии: 1-6 из 6 | Amedia | 1080p bober100 Скачать
1 | 0
Игра престолов [ 13.35 GB ] Игра престолов / Game of Thrones / Сезон: 8 / Серии: 1-6 из 6 | Amedia 5.1 | 720p bober100 Скачать
1 | 0
Игра престолов [ 7.41 GB ] Игра Престолов / Game of Thrones / Сезон: 8 / Серии: 1-6 из 6 | Дубляж - | DLRip Twi7ter Скачать
1 | 0

28-11-2019 20:33  


Отключить вcю реклaмy на сайте, в т.ч. и в плеере онлайн просмотра!

    Дорогой пользователь! Огромная просьба, поблагодарите релизера, оцените раздачу и оставьте свои комментарий, если Вы скачали Игра престолов через торрент бесплатно!!
    Комментировать посты могут только пользователи прошедшие не сложную регистрацию
    Показать сообщения:    


    Игра престолов через торрент
    Скачать бесплатно Игра престолов
    Игра престолов скачать торрент
    Игра престолов смотреть онлайн
    Cкачать фильм Игра престолов бесплатно
    Игра престолов скачать торрент в хорошем качестве
    Игра престолов смотреть онлайн бесплатно в хорошем качестве
    Вы не можете начинать темы
    Вы не можете отвечать на сообщения
    Вы не можете редактировать свои сообщения
    Вы не можете удалять свои сообщения
    Вы не можете голосовать в опросах
    Вы не можете прикреплять файлы к сообщениям
    Вы можете скачивать файлы
    Игра престолов / Game of Thrones / Сезон: 8 / Серии: 1-6 из 6 [2019, Фэнтези, Триллер, WEB-DLRip] MVO [Jaskier] смотреть онлайн, скачать торрент picoco.icu