Ссылка на приватное зеркало нашего сайта всего за 1$. Внимание количество ограничено!!!

2 сезон

iTunes

1 сезон

1

2 сезон

2 сезон

iTunes

1 сезон

RePack

30

Новинка

ВАЖНО

ИГРА 18+

pack

RePack

MK11
pack

Забери бонус

RePack

jed

!!Акция!!

Alien_Rage

RePack

fifa19

RePack

Assassins Creed: Odyssey

RePack

NEED FOR SPEED™ PAYBACK

4 сезон

9 сезон

Бесстыжие 9 сезон

Все сериалы

все сериалы на PB.wtf

RePack

FAR CRY 5
  

Сохрани мою душу / Soul to Keep (Дэвид Алленсворт, Монире) [2018, ужасы, триллер, WEB-DL 1080p] MVO [HDRezka Studio] pb.wtf

Сохрани мою душу через торрент pb.wtf

Размер: 3.79 GB | Добавлен: 1 год 6 мес. назад | Торрент скачан:48 раз
Скачать  

25-05-2019 19:39 Сохрани мою душу Скачать торрент  

Сохрани мою душу / Soul to Keep Год выпуска: 2018
Страна: США
Жанр: ужасы, триллер
Продолжительность: 01:34:22
Перевод: Профессиональный (многоголосый) | HDRezka Studio
Субтитры: английские

Режиссер: Дэвид Алленсворт, Монире

rating

В ролях:

Аврора Хеймбах, Кейт Роуз Рейнольдс, Сандра Мэй Франк, Джордан Теодор, Джесси Джордан, Крэйг Фогель, Коннор МакКенна, Тони Спитц, Дерек Лонг

Описание:

Группа друзей отправляется отдохнуть в заброшенный дом, доставшийся одному из них в наследство от деда. В подвале дома они случайно находят таинственную книгу на латыни и, для развлечения, решают прочитать её вслух...

Качество: WEB-DL 1080p
Формат: MKV

Видео: 1920x1080 (16:9), 23.976 fps, MPEG-4 AVC ~5 171 kbps avg
Аудио#1: 48.0 kHz, AC3 Dolby Digital, 2/0 (L,R) ch, ~192 kbps | RUS / HDRezka Studio
Аудио#2: 48.0 kHz, AC3 Dolby Digital, 3/2 (L,C,R,l,r) + LFE ch, ~384 kbps | ENG
скриншот  скриншот  скриншот  

General
Unique ID : 188470893517400841132323170905454978000 (0x8DCA2C7AAFEC1497B781426DF092A3D0)
Complete name : Soul.to.Keep.2018.WEB-DL.1080p.mkv
Format : Matroska
Format version : Version 4 / Version 2
File size : 3.79 GiB
Duration : 1 h 34 min
Overall bit rate : 5 749 kb/s
Encoded date : UTC 2019-05-21 02:58:51
Writing application : mkvmerge v20.0.0 ('I Am The Sun') 64-bit
Writing library : libebml v1.3.5 + libmatroska v1.4.8

Video
ID : 1
Format : AVC
Format/Info : Advanced Video Codec
Format profile : High@L4
Format settings : CABAC / 4 Ref Frames
Format settings, CABAC : Yes
Format settings, RefFrames : 4 frames
Codec ID : V_MPEG4/ISO/AVC
Duration : 1 h 34 min
Bit rate : 5 171 kb/s
Width : 1 920 pixels
Height : 1 080 pixels
Display aspect ratio : 16:9
Frame rate mode : Constant
Frame rate : 23.976 (24000/1001) FPS
Color space : YUV
Chroma subsampling : 4:2:0
Bit depth : 8 bits
Scan type : Progressive
Bits/(Pixel*Frame) : 0.104
Stream size : 3.41 GiB (90%)
Language : English
Default : Yes
Forced : No
Color range : Limited
Color primaries : BT.709
Transfer characteristics : BT.709
Matrix coefficients : BT.709

Audio #1
ID : 2
Format : AC-3
Format/Info : Audio Coding 3
Codec ID : A_AC3
Duration : 1 h 34 min
Bit rate mode : Constant
Bit rate : 192 kb/s
Channel(s) : 2 channels
Channel positions : Front: L R
Sampling rate : 48.0 kHz
Frame rate : 31.250 FPS (1536 SPF)
Bit depth : 16 bits
Compression mode : Lossy
Stream size : 130 MiB (3%)
Title : HDRezka Studio
Language : Russian
Service kind : Complete Main
Default : Yes
Forced : No

Audio #2
ID : 3
Format : AC-3
Format/Info : Audio Coding 3
Codec ID : A_AC3
Duration : 1 h 34 min
Bit rate mode : Constant
Bit rate : 384 kb/s
Channel(s) : 6 channels
Channel positions : Front: L C R, Side: L R, LFE
Sampling rate : 48.0 kHz
Frame rate : 31.250 FPS (1536 SPF)
Bit depth : 16 bits
Compression mode : Lossy
Stream size : 259 MiB (7%)
Language : English
Service kind : Complete Main
Default : No
Forced : No

Text
ID : 4
Format : UTF-8
Codec ID : S_TEXT/UTF8
Codec ID/Info : UTF-8 Plain Text
Duration : 1 h 33 min
Bit rate : 31 b/s
Count of elements : 876
Stream size : 21.7 KiB (0%)
Language : English
Default : No
Forced : No

Menu
00:00:00.000 : en:The Arrival
00:06:52.000 : en:My Soul To Keep
00:14:58.000 : en:The Basement
00:22:34.000 : en:Expert Demon Conjuror
00:32:57.000 : en:The Freddy Zone
00:49:15.000 : en:That's Still Grace In There
01:00:41.000 : en:This Ends Now
01:11:59.000 : en:Out Of The Closet
01:20:02.000 : en:The Banishment
01:28:30.000 : en:Exodus

pb.wtf



Скачать Сохрани мою душу через торрент http://a.radikal.ru/a19/1905/b9/0b418c6643a3.jpg Скачать фильм Сохрани мою душу через торрент бесплантно в хорошем качестве Описание: Группа друзей отправляется отдохнуть в заброшенный дом, доставшийся одному из них в наследство от деда. В подвале дома они ... 10 10 5
Торрент: Зарегистрирован [2019-05-25 19:39] · скачан: 48 раз
Статус: T временная
Размер: 3.79 GB
Как cкачать? Как скачать Сохрани мою душу через торрент | qTorrent

28-11-2019 20:33  

Отключить всю рекламу на сайте

26-05-2019 06:03 Сохрани мою душу Скачать торрент  

Гм, сюжет до боли знакомый....pb.wtf



26-05-2019 11:33 Сохрани мою душу Скачать торрент  

Судя по ёбачам этих чуваков, они вряд ли смогли бы прочитать книгу на латыни)pb.wtf



    Дорогой пользователь! Огромная просьба, поблагодарите релизера, оцените раздачу и оставьте свои комментарий, если Вы скачали Сохрани мою душу через торрент бесплатно! Внесите свою лепту в развитие PiratBit!
    Комментировать посты могут только пользователи прошедшие не сложную регистрацию
    Показать сообщения:    

    Сохрани мою душу через торрент
    Скачать бесплатно Сохрани мою душу
    Сохрани мою душу скачать торрент
    Сохрани мою душу смотреть онлайн
    Cкачать фильм Сохрани мою душу бесплатно
    Сохрани мою душу скачать торрент в хорошем качестве
    Сохрани мою душу смотреть онлайн бесплатно в хорошем качестве


    Вы не можете начинать темы
    Вы не можете отвечать на сообщения
    Вы не можете редактировать свои сообщения
    Вы не можете удалять свои сообщения
    Вы не можете голосовать в опросах
    Вы не можете прикреплять файлы к сообщениям
    Вы можете скачивать файлы